Софт-Портал

Pupo дискография Mp3 скачать торрент

Рейтинг: 4.2/5.0 (454 проголосовавших)

Категория: Торрент-файлы

Описание

Pupo (Enzo Ghinazzi) - Discography (24 CD releases) 1976-2008 - Музыка скачать бесплатно, без СМС и без регистрации Мир развлечений

Pupo (Enzo Ghinazzi) - Discography (24 CD releases) 1976-2008

Pupo дискография mp3 скачать торрент

Категория. Дискография
Исполнитель. Pupo (Enzo Ghinazzi)
Жанр. Pop
Производители дисков. Italy, EU, Russia
Лэйблы. Ariola, Universal, Melodia
Года Выпуска дисков. 1976-2008
Количество треков. 24 CD
Время звучания. 18ч 27м 23с
Формат. mp3
Качество kbps. 320
Размер архива. 2.7 GB

Pupo (Enzo Ghinazzi) Пупо (Энцо Гинацци) – один из самых популярных итальянских исполнителей. Настоящую славу приобрел в 80-х годах прошлого века. Неоднократный лауреат фестиваля в Сан-Ремо. Песни, автором которых является Pupo (Enzo Ghinazzi). исполняются многими популярными исполнителями, среди которых Ricchi e Poveri, Umberto Tozzi и многие другие.

Здесь представлена наиболее полная дискография замечательного итальянского исполнителя Пупо (Энцо Гинацци).

1981 Pupo (LP Melodia USSR С50 22695 004 Ariola 48kHz) Letitbit Shareflare Depositfiles
(320) 66.6 Mb (29м 26с)(09 tracks)

1992 La Mia Preghiera (Enzo Ghinazzi 1) Letitbit Shareflare Depositfiles
(320) 85.6 Mb (38м 30с)(10 tracks)

INFO - папка с картинками, обложками и другой информацией 54MB Letitbit Shareflare Depositfiles

Pupo дискография mp3 скачать торрент Боевые знаки №5 2010. Воздушно-десантные войска. СССР - Германия

Pupo дискография mp3 скачать торрент руководств по использованию продуктов ADOBE CS5 (2010)

Pupo дискография mp3 скачать торрент Blumentals WeBuilder portable 2010

Pupo дискография mp3 скачать торрент 93 лучших плагина для Adobe Photoshop

Pupo дискография mp3 скачать торрент Auslogics BoostSpeed 4.5.14.270 + Keygen

Всего комментариев. 2

Порядок вывода комментариев:

Завсегда пожалуйста, Товарищ

Спасибо за Пупка! Я поклонник итальянской эстрады. Рад, что у вас можно скачать так его много!
С уважением. Tovariщ

Добавлять комментарии могут только зарегистрированные пользователи.
[ Регистрация | Вход ]

Pupo дискография mp3 скачать торрент:

  • скачать
  • скачать
  • Другие статьи

    Pupo дискография mp3 скачать торрент

    Pupo дискография mp3 скачать торрент

    О музыке: Энцо Гинацци (итал. Enzo Ghinazzi), более известный под псевдонимом "Pupo" - итальянский певец. Он практически ежегодно гастролирует по России, участвует в концертах "Сан-Ремо" в Кремле, "Дискотеке 80-х" Авторадио и др.


    1976 - Come Sei Bella
    1979 - Gelato Al Cioccolato
    1980 - Piu Di Prima
    1981 - Lo Devo Solo a Te
    1983 - Cieli Azzurri
    1984 - Malattia D'amore
    1985 - Change Generation
    1986 - La Vita E' Molto Di Piu'
    1989 - Quello Che Sono
    1991 - Canada's Wonderland
    1992 - La Mia Preghiera
    1996 - 1996
    1996 - Pupo
    1997 - I Grandi Successi
    1998 - Tornero
    1999 - Music History
    2000 - Sei Caduto Anche Tu
    2003 - Su Di Noi
    2004 - L'equilibrista
    2005 - Flashback Collection
    2005 - Su Di Noi (Limited Edition)
    2008 - Goodbye Is Not Forever
    Bonus

    Нажмите чтобы закрыть спойлер: Альбомы

    Дискография) PUPO (Pop, Italo Pop) MP3, 320

    Pupo дискография mp3 скачать торрент

    Pupo дискография mp3 скачать торрент

    Дискография
    Исполнитель: PUPO
    Жанр: Pop,Italo Pop
    Формат: MP3
    Битрейт: 320 kbps
    Тип битрейта: CBR
    Продолжительность: 16:01:33

    Энцо Гинацци (Enzo Ghinazzi) родился 11 сентября 1955 года в итальянском городе Понтичино Ponticino (AR)) А в 1976 году увидел свет его первый альбом Come Sei Bella. С тех пор, более 30 лет он известен как Пупо (Pupo).
    С 1976 по 1982 годы его успех был просто оглушителен. Такие его песни как Su di noi, Lo devo solo a te, Forse, Ciao, Gelato al cioccolatoи многие другие звучали на радиостанциях всего мира и продавались миллионами копий как в Италии, так и в других странах. В эти годы Пупо был удостоен 11 золотых дисков, а за песню Cosa farai в 1981 году получил Золотую Гондолу на фестивале легкой музыки в Венеции. Он участвовал в четырех фестивалях Сан-Ремо (1980,1983,1984 и 1992гг), причем в 1980 и 1984 годах занимал третье и четвертое места.
    Голос Пупо звучал в театрах Торонто и Нью-Йорка, Лондона и Парижа, Сиднея и Токио, Ленинграда и Москвы.
    Энцо Гинацци не только пишет и исполняет свои песни, но и является автором многих хитов своих коллег. Например, песня Saro perche ti amo в исполнении группы Рикки и Повери (Ricchi e Poveri) стала жемчужиной итальянского диско 1981 года.
    С 1981 года Пупо постоянно в составе NIC (Nazionale Italiana Cantanti) - футбольной команды, в которой играют звезды итальянской эстрады такие как Джанни Моранди, Рикардо Фольи, Эрос Рамазотти.
    Заметным событием в жизни певца стало турне по Советскому Союзу летом 1985 года. За полтора месяца он дал 40 концертов в Риге, Таллине, Ленинграде и Москве. Все с огромным успехом. С тех пор он регулярно приезжает в Россию и очень любит российскую публику, считая ее самой внимательной и благодарной в мире.
    В 1991 году вышел единственный концертный альбом Пупо Canadas Wonderland, на котором записан один из триумфальных концертов в Торонто. А через год Пупо снова в Сан-Ремо с песней La mia pregiera.
    В 1996 году Пупо выпустил альбом Pupo-1996, а в 1998 - Tornero. Песни с этого альбома Non e un addio, Terra di nessuno, Tornero сразу же зазвучали на итальянских радиостанциях. В поддержку альбома Пупо вместе со своей группой Матох Банд (Matoh Band) совершил многомесячное мировое турне, посетив, в том числе, Россию и Казахстан.
    В 2001 году вышел альбом Пупо Sei caduto anche tu, который он посвятил своему отцу Фиорелло.
    В 90-е годы Энцо Гинацци появился на итальянских телеэкранах в непривычной для себя роли телеведущего. Многие годы он вел популярные телепрограммы Domenica In, Quelli Che In Calcio и многие другие.
    Сейчас Энцо Гинацци "патриарх" в своем доме в Понтичино, где он живет с женой Анной, дочерьми Илларией, Валентиной и Кларой и внуком Леонардо.
    В 2001 году стартовало мировое турне, охватившее Европу, Австралию, США, Канаду, Россию и Казахстан. В 2003м - снова Россия, США и 3 дня аншлаги в Улан-Баторе (см. статью "Пупо земли итальянской") - Пупо стал первым итальянским артистом, выступившим в Монголии.
    Всё чаще можно увидеть Пупо-телеведущего. После успешного дебюта на телевидении в 1989 в передаче "Domenica In", в 1997 он - соведущий передачи "Quelli che il calcio", а также частый гость многих самых популярных телешоу итальянского ТВ. В разное время с 2001 по 2004 годы Пупо появлялся в роли ведущего в шоу "30 ore per la vita" и "I Gemelli" вместе с Валерио Стафелли, а эфир шоу, которое вел Джанни Моранди с участием Пупо стал рекордным в истории передачи по количеству зрителей.
    В 2004 году вышел новый диск LEquilibrista, продажи которого в считанные месяцы достигли 10000 копий (альбому 1998 года на это потребовалось 3 года). Альбом имел большой успех, как у слушателей, так и у критиков, а его заглавная песня исполнялась не только по радио, но и в самых известных телепередачах. В том же году артист становится одним из ведущих воскресной передачи "Buon

    Pupo дискография mp3 скачать торрент

    Комментарии (0)

    Информация
    Посетители, находящиеся в группе Гости. не могут оставлять комментарии к данной публикации.

    Вся музыка в MP3 альбомах исполнителя Pupo - скачать и слушать альбомы и подборки песен, дискографию - Mp3poisk net (ru)

    Тексты песен
    • look at me my depth perception must be off again cause this hurts
      Saliva - Rest in Pieces
    • don't lose your head don't lose your head don't lose your head don't
      Queen - Don't Lose Your Head
    • remember when we used to look how sun set far away' and how you said
      Sonata Arctica - Tallulah
    • don't believe what you hear don't believe what you see if you just
      U2 - Acrobat
    • jamas senti en el alma tanto amor y nadie mas que tu me amo por ti
      Josh Groban - Alejate
    • you play the fool but you're insecure you twist my words and fake the
      A Skylit Drive - Unbreakable
    • i m better so much better now i see the light touch the light we re
      The Wanted - Chasing The Sun
    • now here you go again you say you want your freedom well who am i to
      Fleetwood Mac - Dreams
    • budet kom pa en kall vinternatt carolus finns ej mer hemat frander
      Sabaton - Ruina Imperii
    • the sky ranges the past enclosed in ancient walls captured in
      Diary Of Dreams - At the Border of My Nation
    • znas li da nisam mogla disati jedva sam misli stigla sabrati kad sam
      Nina Badric - Moja Ljubav
    • my words are weapons in which i murder you with please be don't be
      Papa Roach - Tightrope
    • sometimes i feel like i m going out of my mind boy the way you do me
      The Saturdays - Issues
    • you say i sound silly when i laugh real loud talk about my day and
      Candice Glover - I Am Beautiful
    • просто ты не любила и не любишь меня просто сердце остыло сердце
      Revoльvers - Отпусти

    Pupo дискография mp3 скачать торрент

    Э?нцо Гина?цци (итал. Enzo Ghinazzi), более известный под псевдонимом Пупо (итал. Pupo, род. 11 сентября 1955) — итальянский певец.

    Энцо Гинацци родился в итальянском городе Понтичино. Был популярен в 1980-x годах.

    Его карьера в качестве певца длится уже много лет, начиная с 1975, Пупо было продано свыше двадцати миллионов альбомов и выпущено 11 золотых дисков. Его дебютная пластинка — сингл «Ti scrivero». Первый альбом вышел в 1976 году, он называется «Come sei bella». Большой успех приходит в 1978 году с песней «Ciao», а затем с «Gelato al ciccolato», написанной Cristiano Malgioglio.

    В 1980 году он занимает 3-е место фестивале Сан-Ремо с песней «Su di noi», которая становится одной из его самых известных. В 1983 году исполняет на фестивале песню «Cieli azzurri», в 1984 году — «Un amore grande», написанной Умберто Тоцци и Джанкарло Бигацци (4-е место). После нескольких лет кризиса вернулся в Сан-Ремо в 1992 с песней «La mia preghiera». Другой его большой успех — «Firenze Santa Maria Novella», в которой он поет о своей любви к тосканской столице.

    Пупо автор не только своих песен, он также пишет песни для других исполнителей, таких, как, например, «Sara perche ti amo», хит группы «Ricchi e Poveri». Многие песни Пупо были переведены на немецкий, французский, английский, испанский языки. Он очень известен в России (где провел десятки концертов).

    В последние годы он часто выступает во многих телевизионных программах. В 2005 году был приглашен в Бразилию для второго издания реалити-шоу «La fattoria». Летом 2005 впервые ведет свою собственную программу на Rai Uno — викторину «Il malloppo». Благодаря успеху у публики Пупо было поручено вести программу «Affari tuoi». В 2006 году ведет новую передачу «Tutto per tutto», а в 2007 — «Reazione a catena — L’intesa vincente» на Rai Uno. С 2009 по настоящее время является главным ведущим популярной телепередачи «I Raccomandati», выходящей на телевизионном канале Rai Uno. С января 2010 года ведет развлекательную радиопередачу «Attenti a Pupo» на Rai Uno.

    В 2009 году вновь принял участие в фестивале Сан-Ремо 2009 с песней «L’opportunita», вместе с Paolo Belli и Youssou N’Dour.

    Пупо принял участие в шестой раз в фестивале Сан-Ремо 2010, вместе с Emanuele Filiberto и Luca Canonici. Трио представило песню под названием «Italia amore mio» и заняло второе место, обогнав по итогам голосования Марко Менгони, которого до фестиваля все считали фаворитом, но уступив еще одному «фабриканту» Валерио Скану.

    * 1975 - Ti scrivero
    * 1976 - Come sei bella
    * 1977 - Io solo senza te
    * 1978 - Ciao
    * 1979 - Forse
    * 1980 - Su di noi
    * 1980 - Cosa farai
    * 1981 - Lo devo solo a te
    * 1981 - Nashville
    * 1982 - Ancora io
    * 1983 - E va bene cosi
    * 1983 - Cieli azzurri
    * 1984 - Un amore grande
    * 1985 - Change generation
    * 1986 - La vita e molto di piu
    * 1987 - Amore italiano
    * 1989 - Dove sarai domani
    * 1991 - Bambina
    * 1992 - La mia preghiera
    * 1995 - Senza fortuna
    * 1996 - La notte
    * 1997 - In eternita
    * 1998 - Non e un addio
    * 1998 - E Fiorentina
    * 2000 - Sei caduto anche tu

    * 1976 - Come sei bella
    * 1979 - Gelato al cioccolato
    * 1980 - Piu di prima
    * 1981 - Lo devo solo a te
    * 1983 - Cieli azzurri
    * 1984 - Malattia d’amore
    * 1985 - Change generation
    * 1986 - La vita e molto di piu
    * 1989 - Quello che sono
    * 1991 - Canada’s Wonderland
    * 1992 - Enzo Ghinazzi 1
    * 1994 - All the best
    * 1996 - Pupo 1996
    * 1998 - Pupo «Tornero»
    * 2001 - Sei caduto anche tu
    * 2004 - L’equilibrista

    Pop) Pupo

    Pupo - Discography / Дискография - 1979-2005
    Жанр. Pop
    Производитель диска. Italy, Germany, Россия
    Аудио кодек. FLAC
    Тип рипа. image+.cue
    Битрейт аудио. lossless

    1979 - Gelato Al Cioccolato

    Производитель диска: Made In The EU 2001
    Продолжительность: 00:30:55
    01. Forse
    02. Atomino
    03. Gabriela
    04. Io Solo Senza Te
    05. Ti Ricodi
    06. Gelato Al Cioccolato
    07. Cercami Ancora
    08. Sempre
    09. A Volte
    10. Ciao

    1980 - Piu Di Prima

    Производитель диска: Made In The EU 2001
    Продолжительность: 00:34:25
    01. Cosa Farai
    02. Piu' Di Prima
    03. Su Di Noi
    04. Piccola Tu
    05. Un Nuovo Giorno
    06. Bravo
    07. Firenze S.M. Novella
    08. S. Francisco
    09. Innamorata
    10. Lucia

    1981 - Lo Devo Solo A Te

    Производитель диска: Made In The EU 2001
    Продолжительность: 00:32:40
    01. Lo Devo Solo A Te
    02. Perche E Cosi
    03. Chissa Se Domani
    04. Nashville
    05. Volano
    06. Non Mi Arrendevo Mai
    07. La Storia Di Noi Due
    08. Lidia A Mosca
    09. Burattino Telecomandato
    10. Ti Sembra Facile

    1981 - Lo Devo Solo A Te + 1983 - Cieli Azzurri

    Производитель диска: Россия (CD Max)
    Продолжительность: 1:19:06:57

    Lo Devo Solo A Te 1981
    01. Lo Devo Solo A Te
    02. Perche E Cosi
    03. Chissa Se Domani
    04. Nashville
    05. Volano
    06. Non Mi Arrendevo Mai
    07. La Storia Di Noi Due
    08. Lidia A Mosca
    09. Burattino Telecomandato
    10. Ti Sembra Facile
    Cieli Azzurri 1983
    11. Cieli Azzurri
    12. Noi
    13. E Va Bene Cosi
    14. Meglio Di No
    15. Il Futuro E Gia In Mezzo A Noi
    16. Ancora Io
    17. E Vorrei
    18. Una Nuova Bugia
    19. E Gia Mezzanotte
    20. E Invece Niente
    Bonus:
    21. Songo Straniero (Bonus)
    22. La Vita E Molto Di Piu (Bonus)
    23. Quanta Gente (Bonus)

    1984 - Malattia D'amore

    Производитель диска: Made In Italy
    Продолжительность: 34:23

    01 Un Amore Grande
    02 Vola
    03 E Vero
    04 Otte Chiara
    05 La MIa Anima
    06 Malattia Damore
    07 Prima Di Te
    08 Facile No
    09 Tu Amico
    10 Fanna Mia

    1984 - Malattia D'amore + 1985 - Change Generation

    Производитель диска: Россия (Rip с Винила)
    Продолжительность: 62:44

    Malattia D'amore 1984
    01 Un Amore Grande
    02 Vola
    03 E Vero
    04 Otte Chiara
    05 La MIa Anima
    06 Malattia Damore
    07 Prima Di Te
    08 Facile No
    09 Tu Amico
    10 Fanna Mia
    Change Generation 1985 11 Suona E Va
    12 Change Generation
    13 Di Nuovo Tu
    14 La Mia Liberta
    15 Vita Da Artista
    16 Cantando
    17 Io Mi Fermo Om
    18 Oltre La Vita
    19 Susi O.K.

    1986 - La Vita E Molto Di Piu

    Страна-производитель диска: Россия
    Год выхода альбома: 1986
    Год издания CD: 2011
    Продолжительность: 32:40
    Источник (релизер): MiniMax1
    01 La Vita E Molto Di Piu
    02 Piccole Poesie
    03 Forse Ce La Farai
    04 Sogno Straniero
    05 Quando Penso A Te
    06 Quanta Gente
    07 Settembre
    08 Mille Passi Di Silenzio
    09 Non Posso Fare A Meno Di Te

    1986 - La Vita E Molto Di Piu + 1989 - Quello Che Sono

    Производитель диска: Россия (Rip с Винила)
    Продолжительность: 75:31
    La Vita E Molto Di Piu 1986
    01 La Vita E Molto Di Piu
    02 Piccole Poesie
    03 Forse Ce La Farai
    04 Sogno Straniero
    05 Quando Penso A Te
    06 Quanta Gente
    07 Settembre
    08 Mille Passi Di Silenzio
    09 Non Posso Fare A Meno Di Te
    Quello Che Sono 1989
    10 Dove Sarai Domani
    11 La Tua Pelle
    12 Quando Saremo Ricchi
    13 Canzone Amica
    14 Anima Sola
    15 Che Pizza La TV
    16 E Cosi
    17 Vecchio Pupo
    18 Quello Che Sono
    19 Care Amore Mio
    20 Pensando Ad Anna

    Exact Audio Copy V0.99 prebeta 4 from 23. January 2008
    Отчёт EAC об извлечении, выполненном 25. апреля 2009, 15:03
    Pupo / La Vita E Molto Di Piu = Quello Che Sono
    Дисковод: Optiarc DVD RW AD-7173S Adapter: 2 ID: 0
    Режим чтения. Достоверность
    Использование точного потока. Да
    Отключение кэша аудио. Да
    Использование указателей C2. Нет
    Коррекция смещения при чтении. 48
    Способность читать области Lead-in и Lead-out. Нет
    Заполнение пропущенных сэмплов тишиной. Да
    Удаление блоков с тишиной в начале и конце. Нет
    При вычислениях CRC использовались нулевые сэмплы. Да
    Интерфейс. Установленный внешний ASPI-интерфейс
    Выходной формат. Внутренние WAV-операции
    Формат сэмплов. 44.100 Гц; 16 бит; стерео
    TOC извлечённого CD
    Трек | Старт | Длительность | Начальный сектор | Конечный сектор
    ---------------------------------------------------------------------
    1 | 0:00.00 | 3:15.24 | 0 | 14648
    2 | 3:15.24 | 3:29.31 | 14649 | 30354
    3 | 6:44.55 | 2:56.57 | 30355 | 43611
    4 | 9:41.37 | 3:59.55 | 43612 | 61591
    5 | 13:41.17 | 3:58.25 | 61592 | 79466
    6 | 17:39.42 | 4:03.23 | 79467 | 97714
    7 | 21:42.65 | 3:41.63 | 97715 | 114352
    8 | 25:24.53 | 4:07.32 | 114353 | 132909
    9 | 29:32.10 | 3:10.43 | 132910 | 147202
    10 | 32:42.53 | 3:54.42 | 147203 | 164794
    11 | 36:37.20 | 4:48.49 | 164795 | 186443
    12 | 41:25.69 | 4:40.70 | 186444 | 207513
    13 | 46:06.64 | 4:32.64 | 207514 | 227977
    14 | 50:39.53 | 3:32.23 | 227978 | 243900
    15 | 54:12.01 | 3:35.65 | 243901 | 260090
    16 | 57:47.66 | 4:07.39 | 260091 | 278654
    17 | 61:55.30 | 3:33.59 | 278655 | 294688
    18 | 65:29.14 | 4:32.56 | 294689 | 315144
    19 | 70:01.70 | 4:33.67 | 315145 | 335686
    20 | 74:35.62 | 0:55.41 | 335687 | 339852
    Характеристики диапазона извлечения и сообщения об ошибках
    Выбранный диапазон
    Имя файла D:\Pupo\Pupo 1986, 1989\Pupo - La Vita E Molto Di Piu = Quello Che Sono.wav
    Пиковый уровень 98.0 %
    Качество диапазона 99.9 %
    CRC копии 6FE1D55C
    Копирование. OK
    Ошибок не произошло
    AccurateRip: сводка
    Трек 1 нет в базе данных
    Трек 2 нет в базе данных
    Трек 3 нет в базе данных
    Трек 4 нет в базе данных
    Трек 5 нет в базе данных
    Трек 6 нет в базе данных
    Трек 7 нет в базе данных
    Трек 8 нет в базе данных
    Трек 9 нет в базе данных
    Трек 10 нет в базе данных
    Трек 11 нет в базе данных
    Трек 12 нет в базе данных
    Трек 13 нет в базе данных
    Трек 14 нет в базе данных
    Трек 15 нет в базе данных
    Трек 16 нет в базе данных
    Трек 17 нет в базе данных
    Трек 18 нет в базе данных
    Трек 19 нет в базе данных
    Трек 20 нет в базе данных
    Ни одного трека нет в базе AccurateRip
    Конец отчёта[/pre]

    1989 - Quello Che Sono

    Производитель диска: Made In EU
    Продолжительность: 42:55
    01 Dove Sarai Domani
    02 La Tua Pelle
    03 Quando Saremo Ricchi
    04 Canzone Amica
    05 Anima Sola
    06 Che Pizza La TV
    07 E Cosi
    08 Vecchio Pupo
    09 Quello Che Sono
    10 Care Amore Mio
    11 Pensando Ad Anna

    Exact Audio Copy V0.99 prebeta 4 from 23. January 2008
    Отчёт EAC об извлечении, выполненном 12. сентября 2011, 12:13
    Pupo / Quello che sono
    Дисковод: PIONEER DVD-RW DVR-215D Adapter: 2 ID: 1
    Режим чтения. Достоверность
    Использование точного потока. Да
    Отключение кэша аудио. Да
    Использование указателей C2. Нет
    Коррекция смещения при чтении. 48
    Способность читать области Lead-in и Lead-out. Нет
    Заполнение пропущенных сэмплов тишиной. Да
    Удаление блоков с тишиной в начале и конце. Нет
    При вычислениях CRC использовались нулевые сэмплы. Нет
    Интерфейс. Установленный внешний ASPI-интерфейс
    Выходной формат. Внутренние WAV-операции
    Формат сэмплов. 44.100 Гц; 16 бит; стерео
    TOC извлечённого CD
    Трек | Старт | Длительность | Начальный сектор | Конечный сектор
    ---------------------------------------------------------------------
    1 | 0:00.32 | 3:56.20 | 32 | 17751
    2 | 3:56.52 | 4:48.65 | 17752 | 39416
    3 | 8:45.42 | 4:42.20 | 39417 | 60586
    4 | 13:27.62 | 4:33.43 | 60587 | 81104
    5 | 18:01.30 | 3:32.70 | 81105 | 97074
    6 | 21:34.25 | 3:36.07 | 97075 | 113281
    7 | 25:10.32 | 4:07.43 | 113282 | 131849
    8 | 29:18.00 | 3:32.65 | 131850 | 147814
    9 | 32:50.65 | 4:33.32 | 147815 | 168321
    10 | 37:24.22 | 4:34.03 | 168322 | 188874
    11 | 41:58.25 | 0:57.20 | 188875 | 193169
    Характеристики диапазона извлечения и сообщения об ошибках
    Выбранный диапазон
    Имя файла D:\Pupo - Дискография 2\1989 - Quello che sono\Pupo - Quello che sono.wav
    Пиковый уровень 98.0 %
    Качество диапазона 100.0 %
    CRC копии C6643A54
    Копирование. OK
    Ошибок не произошло
    AccurateRip: сводка
    Трек 1 точное извлечение (доверие 1) [CA7F1414]
    Трек 2 точное извлечение (доверие 1) [EEEEC7F1]
    Трек 3 точное извлечение (доверие 1) [0F33F181]
    Трек 4 точное извлечение (доверие 1) [E5A8B7C3]
    Трек 5 точное извлечение (доверие 1) [70673E02]
    Трек 6 точное извлечение (доверие 1) [9D33F852]
    Трек 7 точное извлечение (доверие 1) [BFAC178C]
    Трек 8 точное извлечение (доверие 1) [6EB153B6]
    Трек 9 точное извлечение (доверие 1) [7080432F]
    Трек 10 точное извлечение (доверие 1) [5351BEE2]
    Трек 11 точное извлечение (доверие 1) [EDD9F21E]
    Все треки извлечены точно
    Конец отчёта

    1989 - Domenica Insieme

    Производитель диска: Made In Italy
    Продолжительность: 00:51:01
    01. Forse (3:14)
    02. Sempre tu (3:04)
    03. Su di noi (3:21)
    04. Io solo senza te (3:09)
    05. La vita e molto di piu (3:18)
    06. Lo devo solo a te (3:05)
    07. Gelato al cioccolato (3:19)
    08. Come sei bella (3:00)
    09. Bravo (3:30)
    10. Lidia a Mosca (3:30)
    11. Piu di prima (3:22)
    12. Ti scrivero (4:20)
    13. Firenze Santa Maria Novella (3:35)
    14. Cosa farai (3:29)
    15. Ciao (3:45)

    Лог создания рипа

    Exact Audio Copy V1.0 beta 1 from 15. November 2010
    EAC extraction logfile from 17. November 2011, 23:35
    Pupo / Domenica insieme
    Used drive. SONY DVD RW DRX-S70U Adapter: 1 ID: 0
    Read mode. Secure
    Utilize accurate stream. Yes
    Defeat audio cache. Yes
    Make use of C2 pointers. No
    Read offset correction. 48
    Overread into Lead-In and Lead-Out. No
    Fill up missing offset samples with silence. Yes
    Delete leading and trailing silent blocks. No
    Null samples used in CRC calculations. Yes
    Used interface. Native Win32 interface for Win NT & 2000
    Gap handling. Appended to previous track
    Used output format. User Defined Encoder
    Selected bitrate. 256 kBit/s
    Quality. High
    Add ID3 tag. No
    Command line compressor. H:\Program Files\Exact Audio Copy\FLAC\FLAC.EXE
    Additional command line options. -8 -V -T "ARTIST=%a" -T "TITLE=%t" -T "ALBUM=%g" -T "DATE=%y" -T "TRACKNUMBER=%n" -T "TOTALTRACKS=%x" -T "GENRE=%m" -T "ALBUMARTIST=%v" -T "ALBUM ARTIST=%v" -T "COMMENT=EAC Secure Mode, Test & Copy, AccurateRip, FLAC -8" %s
    TOC of the extracted CD
    Track | Start | Length | Start sector | End sector
    ---------------------------------------------------------
    1 | 0:00.33 | 3:14.00 | 33 | 14582
    2 | 3:14.33 | 3:04.00 | 14583 | 28382
    3 | 6:18.33 | 3:20.50 | 28383 | 43432
    4 | 9:39.08 | 3:08.50 | 43433 | 57582
    5 | 12:47.58 | 3:18.25 | 57583 | 72457
    6 | 16:06.08 | 3:05.00 | 72458 | 86332
    7 | 19:11.08 | 3:19.00 | 86333 | 101257
    8 | 22:30.08 | 3:00.25 | 101258 | 114782
    9 | 25:30.33 | 3:30.00 | 114783 | 130532
    10 | 29:00.33 | 3:30.00 | 130533 | 146282
    11 | 32:30.33 | 3:22.00 | 146283 | 161432
    12 | 35:52.33 | 4:20.00 | 161433 | 180932
    13 | 40:12.33 | 3:34.50 | 180933 | 197032
    14 | 43:47.08 | 3:29.25 | 197033 | 212732
    15 | 47:16.33 | 3:45.00 | 212733 | 229607
    Track 1
    Filename E:\PMusic\Pupo - Domenica Insieme (1989) [FLAC] \01 - Forse.wav
    Pre-gap length 0:00:02.33
    Peak level 66.8 %
    Extraction speed 2.5 X
    Track quality 100.0 %
    Test CRC 1EB55987
    Copy CRC 1EB55987
    Track not present in AccurateRip database
    Copy OK
    Track 2
    Filename E:\PMusic\Pupo - Domenica Insieme (1989) [FLAC] \02 - Sempre tu.wav
    Peak level 72.1 %
    Extraction speed 2.8 X
    Track quality 100.0 %
    Test CRC C5BE7D5B
    Copy CRC C5BE7D5B
    Track not present in AccurateRip database
    Copy OK
    Track 3
    Filename E:\PMusic\Pupo - Domenica Insieme (1989) [FLAC] \03 - Su di noi.wav
    Peak level 83.3 %
    Extraction speed 3.0 X
    Track quality 100.0 %
    Test CRC 1A232F15
    Copy CRC 1A232F15
    Track not present in AccurateRip database
    Copy OK
    Track 4
    Filename E:\PMusic\Pupo - Domenica Insieme (1989) [FLAC] \04 - Io solo senza te.wav
    Peak level 81.8 %
    Extraction speed 3.2 X
    Track quality 100.0 %
    Test CRC D6458D7C
    Copy CRC D6458D7C
    Track not present in AccurateRip database
    Copy OK
    Track 5
    Filename E:\PMusic\Pupo - Domenica Insieme (1989) [FLAC] \05 - La vita e molto di piu.wav
    Peak level 71.7 %
    Extraction speed 3.4 X
    Track quality 100.0 %
    Test CRC F36C71DF
    Copy CRC F36C71DF
    Track not present in AccurateRip database
    Copy OK
    Track 6
    Filename E:\PMusic\Pupo - Domenica Insieme (1989) [FLAC] \06 - Lo devo solo a te.wav
    Peak level 89.6 %
    Extraction speed 0.5 X
    Track quality 99.9 %
    Test CRC 65B87AFA
    Copy CRC 65B87AFA
    Track not present in AccurateRip database
    Copy OK
    Track 7
    Filename E:\PMusic\Pupo - Domenica Insieme (1989) [FLAC] \07 - Gelato al cioccolato.wav
    Peak level 76.6 %
    Extraction speed 3.7 X
    Track quality 100.0 %
    Test CRC 583A3E3B
    Copy CRC 583A3E3B
    Track not present in AccurateRip database
    Copy OK
    Track 8
    Filename E:\PMusic\Pupo - Domenica Insieme (1989) [FLAC] \08 - Come sei bella.wav
    Peak level 73.4 %
    Extraction speed 3.0 X
    Track quality 99.9 %
    Test CRC A9418BBF
    Copy CRC A9418BBF
    Track not present in AccurateRip database
    Copy OK
    Track 9
    Filename E:\PMusic\Pupo - Domenica Insieme (1989) [FLAC] \09 - Bravo.wav
    Peak level 65.4 %
    Extraction speed 4.0 X
    Track quality 100.0 %
    Test CRC 32A9AF1B
    Copy CRC 32A9AF1B
    Track not present in AccurateRip database
    Copy OK
    Track 10
    Filename E:\PMusic\Pupo - Domenica Insieme (1989) [FLAC] \10 - Lidia a Mosca.wav
    Peak level 83.3 %
    Extraction speed 4.2 X
    Track quality 100.0 %
    Test CRC 2FDC31DF
    Copy CRC 2FDC31DF
    Track not present in AccurateRip database
    Copy OK
    Track 11
    Filename E:\PMusic\Pupo - Domenica Insieme (1989) [FLAC] \11 - Piu di prima.wav
    Peak level 89.3 %
    Extraction speed 4.3 X
    Track quality 100.0 %
    Test CRC B2FF4574
    Copy CRC B2FF4574
    Track not present in AccurateRip database
    Copy OK
    Track 12
    Filename E:\PMusic\Pupo - Domenica Insieme (1989) [FLAC] \12 - Ti scrivero.wav
    Peak level 83.4 %
    Extraction speed 3.8 X
    Track quality 99.9 %
    Test CRC 88C99D87
    Copy CRC 88C99D87
    Track not present in AccurateRip database
    Copy OK
    Track 13
    Filename E:\PMusic\Pupo - Domenica Insieme (1989) [FLAC] \13 - Firenze Santa Maria Novella.wav
    Peak level 73.9 %
    Extraction speed 4.7 X
    Track quality 100.0 %
    Test CRC 59A7E973
    Copy CRC 59A7E973
    Track not present in AccurateRip database
    Copy OK
    Track 14
    Filename E:\PMusic\Pupo - Domenica Insieme (1989) [FLAC] \14 - Cosa farai.wav
    Peak level 78.5 %
    Extraction speed 4.8 X
    Track quality 100.0 %
    Test CRC D0FFEB75
    Copy CRC D0FFEB75
    Track not present in AccurateRip database
    Copy OK
    Track 15
    Filename E:\PMusic\Pupo - Domenica Insieme (1989) [FLAC] \15 - Ciao.wav
    Peak level 58.9 %
    Extraction speed 5.0 X
    Track quality 100.0 %
    Test CRC F598C610
    Copy CRC F598C610
    Track not present in AccurateRip database
    Copy OK
    None of the tracks are present in the AccurateRip database
    No errors occurred
    End of status report
    ==== Log checksum EF3D680AAD72223AD2A1204C3CD78452A1B19B3F407139092FA96BC7F2E1150A ====

    Содержание индексной карты (.CUE)

    REM GENRE "Italian Pop"
    REM DATE 1989
    REM DISCID D60BF50F
    REM COMMENT "ExactAudioCopy v1.0b1"
    PERFORMER "Pupo"
    TITLE "Domenica insieme"
    FILE "01 - Forse.wav" WAVE
    TRACK 01 AUDIO
    TITLE "Forse"
    PERFORMER "Pupo"
    PREGAP 00:00:33
    INDEX 01 00:00:00
    FILE "02 - Sempre tu.wav" WAVE
    TRACK 02 AUDIO
    TITLE "Sempre tu"
    PERFORMER "Pupo"
    INDEX 01 00:00:00
    FILE "03 - Su di noi.wav" WAVE
    TRACK 03 AUDIO
    TITLE "Su di noi"
    PERFORMER "Pupo"
    INDEX 01 00:00:00
    FILE "04 - Io solo senza te.wav" WAVE
    TRACK 04 AUDIO
    TITLE "Io solo senza te"
    PERFORMER "Pupo"
    INDEX 01 00:00:00
    FILE "05 - La vita e molto di piu.wav" WAVE
    TRACK 05 AUDIO
    TITLE "La vita e molto di piu"
    PERFORMER "Pupo"
    INDEX 01 00:00:00
    FILE "06 - Lo devo solo a te.wav" WAVE
    TRACK 06 AUDIO
    TITLE "Lo devo solo a te"
    PERFORMER "Pupo"
    INDEX 01 00:00:00
    FILE "07 - Gelato al cioccolato.wav" WAVE
    TRACK 07 AUDIO
    TITLE "Gelato al cioccolato"
    PERFORMER "Pupo"
    INDEX 01 00:00:00
    FILE "08 - Come sei bella.wav" WAVE
    TRACK 08 AUDIO
    TITLE "Come sei bella"
    PERFORMER "Pupo"
    INDEX 01 00:00:00
    FILE "09 - Bravo.wav" WAVE
    TRACK 09 AUDIO
    TITLE "Bravo"
    PERFORMER "Pupo"
    INDEX 01 00:00:00
    FILE "10 - Lidia a Mosca.wav" WAVE
    TRACK 10 AUDIO
    TITLE "Lidia a Mosca"
    PERFORMER "Pupo"
    INDEX 01 00:00:00
    FILE "11 - Piu di prima.wav" WAVE
    TRACK 11 AUDIO
    TITLE "Piu di prima"
    PERFORMER "Pupo"
    INDEX 01 00:00:00
    FILE "12 - Ti scrivero.wav" WAVE
    TRACK 12 AUDIO
    TITLE "Ti scrivero"
    PERFORMER "Pupo"
    INDEX 01 00:00:00
    FILE "13 - Firenze Santa Maria Novella.wav" WAVE
    TRACK 13 AUDIO
    TITLE "Firenze Santa Maria Novella"
    PERFORMER "Pupo"
    INDEX 01 00:00:00
    FILE "14 - Cosa farai.wav" WAVE
    TRACK 14 AUDIO
    TITLE "Cosa farai"
    PERFORMER "Pupo"
    INDEX 01 00:00:00
    FILE "15 - Ciao.wav" WAVE
    TRACK 15 AUDIO
    TITLE "Ciao"
    PERFORMER "Pupo"
    INDEX 01 00:00:00

    Производитель диска: Made In Italy
    Продолжительность: 60:00
    01 Lo Devo Solo A Te
    02 Ciao
    03 Cosa Farai
    04 Firenze S. Maria Novella
    05 Un Amore Grande
    06 Vita Da Artista
    07 Bambina
    08 Forse
    09 Dove Sarai
    10 Medley a)Volano,b) Bravo, c)Non Mi Arrendevo Mai, d)Lidia A Mosca, e)La Mia Anima
    11 Gelato Al Cioccolato
    12 Su Di Noi

    Exact Audio Copy V0.99 prebeta 4 from 23. January 2008
    Отчёт EAC об извлечении, выполненном 23. мая 2009, 20:28
    Pupo / Ciao
    Дисковод: Optiarc DVD RW AD-5170A Adapter: 0 ID: 0
    Режим чтения. Достоверность
    Использование точного потока. Да
    Отключение кэша аудио. Да
    Использование указателей C2. Нет
    Коррекция смещения при чтении. 48
    Способность читать области Lead-in и Lead-out. Нет
    Заполнение пропущенных сэмплов тишиной. Да
    Удаление блоков с тишиной в начале и конце. Нет
    При вычислениях CRC использовались нулевые сэмплы. Да
    Интерфейс. Установленный внешний ASPI-интерфейс
    Выходной формат. Внутренние WAV-операции
    Формат сэмплов. 44.100 Гц; 16 бит; стерео
    TOC извлечённого CD
    Трек | Старт | Длительность | Начальный сектор | Конечный сектор
    ---------------------------------------------------------------------
    1 | 0:00.00 | 4:57.63 | 0 | 22337
    2 | 4:57.63 | 4:30.40 | 22338 | 42627
    3 | 9:28.28 | 3:28.42 | 42628 | 58269
    4 | 12:56.70 | 4:26.13 | 58270 | 78232
    5 | 17:23.08 | 4:48.65 | 78233 | 99897
    6 | 22:11.73 | 4:21.07 | 99898 | 119479
    7 | 26:33.05 | 3:52.18 | 119480 | 136897
    8 | 30:25.23 | 4:11.07 | 136898 | 155729
    9 | 34:36.30 | 4:21.35 | 155730 | 175339
    10 | 38:57.65 | 12:05.70 | 175340 | 229784
    11 | 51:03.60 | 3:36.13 | 229785 | 245997
    12 | 54:39.73 | 5:20.02 | 245998 | 269999
    Характеристики диапазона извлечения и сообщения об ошибках
    Выбранный диапазон
    Имя файла D:\Pupo\Pupo - Ciao (Canada's Wonderland) 1991\Pupo - Ciao.wav
    Пиковый уровень 100.0 %
    Качество диапазона 100.0 %
    CRC копии 3743B233
    Копирование. OK
    Ошибок не произошло
    AccurateRip: сводка
    Трек 1 нет в базе данных
    Трек 2 нет в базе данных
    Трек 3 нет в базе данных
    Трек 4 нет в базе данных
    Трек 5 нет в базе данных
    Трек 6 нет в базе данных
    Трек 7 нет в базе данных
    Трек 8 нет в базе данных
    Трек 9 нет в базе данных
    Трек 10 нет в базе данных
    Трек 11 нет в базе данных
    Трек 12 нет в базе данных
    Ни одного трека нет в базе AccurateRip
    Конец отчёта

    1992 - La Mia Preghiera

    Производитель диска: Made In Italy
    Продолжительность: 38:12
    01. La Mia Preghiera
    02. La Luna
    03. Quel Sapore Di Mare
    04. Stanotte Ho Scritto Una Canzone
    05. Dove Sarai Domani
    06. Dalle 5 Alle
    07. Dimmi Che Cos'e
    08. E Vero
    09. Di Nuovo Tu
    10. La Mia Anima

    Exact Audio Copy V0.99 prebeta 4 from 23. January 2008
    Отчёт EAC об извлечении, выполненном 16. октября 2009, 14:21
    Pupo / La Mia Preghiera
    Дисковод: Optiarc DVD RW AD-5170A Adapter: 0 ID: 0
    Режим чтения. Достоверность
    Использование точного потока. Да
    Отключение кэша аудио. Да
    Использование указателей C2. Нет
    Коррекция смещения при чтении. 48
    Способность читать области Lead-in и Lead-out. Нет
    Заполнение пропущенных сэмплов тишиной. Да
    Удаление блоков с тишиной в начале и конце. Нет
    При вычислениях CRC использовались нулевые сэмплы. Да
    Интерфейс. Установленный внешний ASPI-интерфейс
    Выходной формат. Внутренние WAV-операции
    Формат сэмплов. 44.100 Гц; 16 бит; стерео
    TOC извлечённого CD
    Трек | Старт | Длительность | Начальный сектор | Конечный сектор
    ---------------------------------------------------------------------
    1 | 0:00.00 | 4:12.00 | 0 | 18899
    2 | 4:12.00 | 4:04.43 | 18900 | 37242
    3 | 8:16.43 | 3:45.40 | 37243 | 54157
    4 | 12:02.08 | 3:26.65 | 54158 | 69672
    5 | 15:28.73 | 4:05.65 | 69673 | 88112
    6 | 19:34.63 | 3:47.02 | 88113 | 105139
    7 | 23:21.65 | 3:40.30 | 105140 | 121669
    8 | 27:02.20 | 4:35.35 | 121670 | 142329
    9 | 31:37.55 | 3:20.50 | 142330 | 157379
    10 | 34:58.30 | 3:31.45 | 157380 | 173249
    Характеристики диапазона извлечения и сообщения об ошибках
    Выбранный диапазон
    Имя файла D:\Pupo - Дискография\1992 - La Mia Preghiera\Pupo - La Mia Preghiera.wav
    Пиковый уровень 99.9 %
    Качество диапазона 100.0 %
    CRC копии 8FA6405D
    Копирование. OK
    Ошибок не произошло
    AccurateRip: сводка
    Трек 1 нет в базе данных
    Трек 2 нет в базе данных
    Трек 3 нет в базе данных
    Трек 4 нет в базе данных
    Трек 5 нет в базе данных
    Трек 6 нет в базе данных
    Трек 7 нет в базе данных
    Трек 8 нет в базе данных
    Трек 9 нет в базе данных
    Трек 10 нет в базе данных
    Ни одного трека нет в базе AccurateRip
    Конец отчёта

    1994 - Dal Vivo Canada's Wonderland

    Производитель диска: Made in Italy
    Продолжительность: 60:00
    01 Lo Devo Solo A Te
    02 Ciao
    03 Cosa Farai
    04 Firenze S. Maria Novella
    05 Un Amore Grande
    06 Vita Da Artista
    07 Bambina
    08 Forse
    09 Dove Sarai
    10 Medley a)Volano,b) Bravo, c)Non Mi Arrendevo Mai, d)Lidia A Mosca, e)La Mia Anima
    11 Gelato Al Cioccolato
    12 Su Di Noi

    Производитель диска: Made in Italy
    Продолжительность: 38:12
    01. La Mia Preghiera
    02. La Luna
    03. Quel Sapore Di Mare
    04. Stanotte Ho Scritto Una Canzone
    05. Dove Sarai Domani
    06. Dalle 5 Alle
    07. Dimmi Che Cos'e
    08. E Vero
    09. Di Nuovo Tu
    10. La Mia Anima

    Производитель диска: Made in EC
    Продолжительность: 38:32
    01 La Notte
    02 Solo Con Te
    03 Sara
    04 L'Angelo Postino
    05 Tu
    06 Per Angela
    07 Tu Vincerai
    08 Sempre Tu
    09 Torna Presto
    10 Senza Fortuna

    Exact Audio Copy V0.99 prebeta 4 from 23. January 2008
    Отчёт EAC об извлечении, выполненном 27. июня 2009, 17:16
    Pupo / 1996
    Дисковод: Optiarc DVD RW AD-5170A Adapter: 0 ID: 0
    Режим чтения. Достоверность
    Использование точного потока. Да
    Отключение кэша аудио. Да
    Использование указателей C2. Нет
    Коррекция смещения при чтении. 48
    Способность читать области Lead-in и Lead-out. Нет
    Заполнение пропущенных сэмплов тишиной. Да
    Удаление блоков с тишиной в начале и конце. Нет
    При вычислениях CRC использовались нулевые сэмплы. Да
    Интерфейс. Установленный внешний ASPI-интерфейс
    Выходной формат. Внутренние WAV-операции
    Формат сэмплов. 44.100 Гц; 16 бит; стерео
    TOC извлечённого CD
    Трек | Старт | Длительность | Начальный сектор | Конечный сектор
    ---------------------------------------------------------------------
    1 | 0:00.32 | 3:53.03 | 32 | 17509
    2 | 3:53.35 | 3:44.22 | 17510 | 34331
    3 | 7:37.57 | 3:29.38 | 34332 | 50044
    4 | 11:07.20 | 4:32.12 | 50045 | 70456
    5 | 15:39.32 | 3:32.50 | 70457 | 86406
    6 | 19:12.07 | 3:52.00 | 86407 | 103806
    7 | 23:04.07 | 4:04.03 | 103807 | 122109
    8 | 27:08.10 | 3:54.60 | 122110 | 139719
    9 | 31:02.70 | 3:42.50 | 139720 | 156419
    10 | 34:45.45 | 3:44.62 | 156420 | 173281
    Характеристики диапазона извлечения и сообщения об ошибках
    Выбранный диапазон
    Имя файла D:\Pupo\Pupo - 1996\Pupo - 1996.wav
    Пиковый уровень 98.9 %
    Качество диапазона 99.9 %
    CRC копии 99EBB363
    Копирование. OK
    Ошибок не произошло
    AccurateRip: сводка
    Трек 1 нет в базе данных
    Трек 2 нет в базе данных
    Трек 3 нет в базе данных
    Трек 4 нет в базе данных
    Трек 5 нет в базе данных
    Трек 6 нет в базе данных
    Трек 7 нет в базе данных
    Трек 8 нет в базе данных
    Трек 9 нет в базе данных
    Трек 10 нет в базе данных
    Ни одного трека нет в базе AccurateRip
    Конец отчёта

    1998 - L'album Dei Ricordi

    Производитель диска: Made In USA
    Продолжительность: 40:25
    1 Su di noi 3:22
    2 Non mi arrendevo mai 3:08
    3 Lo devo solo a te 3:05
    4 Lidia a Mosca 3:31
    5 Perche e cosi 3:30
    6 Ti ricordi 3:00
    7 Cosa farai 3:30
    8 La vita e molto di piu 3:16
    9 Firenze Santa Maria Novella 3:34
    10 Volano 3:43
    11 Nashville 6:53
    12 Bravo 3:28

    Производитель диска: Made In Germany
    Продолжительность: 52:49
    01.Non E Un Addio (Goodby Is Not Forever) (Pupo & Robin Beck)
    02.La Terra Di Nessuno
    03.Giovanna
    04.In Eternita
    05.Su Di Noi
    06.L'ultimo Amore (Pupo & Petra Magoni)
    07.Primavera
    08.Forse
    09.Ritrovo Te
    10.Un Amore Grande
    11.Ciao Come Stai
    12.Firenze Santa Maria Novella
    13.Non E Un Addio (Goodbye Is Not Forever) (Pupo & Petra Magoni)
    14.Tornero

    Exact Audio Copy V0.99 prebeta 4 from 23. January 2008
    Отчёт EAC об извлечении, выполненном 17. октября 2009, 14:50
    Pupo / Tornero
    Дисковод: Optiarc DVD RW AD-5170A Adapter: 0 ID: 0
    Режим чтения. Достоверность
    Использование точного потока. Да
    Отключение кэша аудио. Да
    Использование указателей C2. Нет
    Коррекция смещения при чтении. 48
    Способность читать области Lead-in и Lead-out. Нет
    Заполнение пропущенных сэмплов тишиной. Да
    Удаление блоков с тишиной в начале и конце. Нет
    При вычислениях CRC использовались нулевые сэмплы. Да
    Интерфейс. Установленный внешний ASPI-интерфейс
    Выходной формат. Внутренние WAV-операции
    Формат сэмплов. 44.100 Гц; 16 бит; стерео
    TOC извлечённого CD
    Трек | Старт | Длительность | Начальный сектор | Конечный сектор
    ---------------------------------------------------------------------
    1 | 0:00.32 | 4:01.60 | 32 | 18166
    2 | 4:02.17 | 3:55.15 | 18167 | 35806
    3 | 7:57.32 | 3:38.00 | 35807 | 52156
    4 | 11:35.32 | 3:53.63 | 52157 | 69694
    5 | 15:29.20 | 3:46.50 | 69695 | 86694
    6 | 19:15.70 | 3:37.62 | 86695 | 103031
    7 | 22:53.57 | 3:46.05 | 103032 | 119986
    8 | 26:39.62 | 3:29.18 | 119987 | 135679
    9 | 30:09.05 | 4:27.27 | 135680 | 155731
    10 | 34:36.32 | 3:38.40 | 155732 | 172121
    11 | 38:14.72 | 3:26.20 | 172122 | 187591
    12 | 41:41.17 | 3:19.65 | 187592 | 202581
    13 | 45:01.07 | 4:02.23 | 202582 | 220754
    14 | 49:03.30 | 3:46.02 | 220755 | 237706
    Характеристики диапазона извлечения и сообщения об ошибках
    Выбранный диапазон
    Имя файла D:\Pupo - Дискография\1998 - Tornero\Pupo - Tornero.wav
    Подозрительная позиция 0:36:11
    Пиковый уровень 99.9 %
    Качество диапазона 99.9 %
    CRC копии 5697C668
    Копирование завершено
    Ошибок не произошло
    AccurateRip: сводка
    Трек 1 точность не определена (достоверность 2) [359EF0F0], AccurateRip вернул [99D711BD]
    Трек 2 точность не определена (достоверность 2) [8FF4B401], AccurateRip вернул [5617773C]
    Трек 3 точность не определена (достоверность 2) [04EEA3D1], AccurateRip вернул [B14F08F0]
    Трек 4 точность не определена (достоверность 2) [C47D492F], AccurateRip вернул [99BEDF4F]
    Трек 5 точность не определена (достоверность 2) [6A2AEBA9], AccurateRip вернул [A5BE091D]
    Трек 6 точность не определена (достоверность 2) [EC0BC8BD], AccurateRip вернул [06E3B8B7]
    Трек 7 точность не определена (достоверность 2) [7BBA56D1], AccurateRip вернул [5C465958]
    Трек 8 точность не определена (достоверность 2) [0FD33B45], AccurateRip вернул [814FA068]
    Трек 9 точность не определена (достоверность 2) [4041E559], AccurateRip вернул [65B6D803]
    Трек 10 точность не определена (достоверность 2) [AD04D7B2], AccurateRip вернул [F607DAF8]
    Трек 11 точность не определена (достоверность 2) [CB9614B3], AccurateRip вернул [BFC34E22]
    Трек 12 точность не определена (достоверность 2) [D1A5AB29], AccurateRip вернул [7CD2E8BD]
    Трек 13 точность не определена (достоверность 2) [02383D01], AccurateRip вернул [FDFB5053]
    Трек 14 точность не определена (достоверность 2) [B58EEBF0], AccurateRip вернул [8F873484]
    Ни один трек не прошёл проверки на точность
    Конец отчёта

    2000 - Sei Caduto Anche Tu

    Производитель диска:Made In Italy
    Продолжительность: 44:40:22
    01. Sei Caduto Anche Tu
    02. Per Te Saro
    03. La Nostra Storia
    04. Il Verde Del Mare
    05. Il Viaggio
    06. Tu Vivi Ancora
    07. Indifferenza
    08. Sempre Cosi Sara
    09. Ti Sto Pensando Ti Sto Aspettando
    10. Non So Piu Chi Sei
    11. Con Il Tempo Capirai

    Exact Audio Copy V0.99 prebeta 4 from 23. January 2008
    Отчёт EAC об извлечении, выполненном 16. октября 2009, 16:25
    Pupo / Sei Caduto Anche Tu
    Дисковод: Optiarc DVD RW AD-5170A Adapter: 0 ID: 0
    Режим чтения. Достоверность
    Использование точного потока. Да
    Отключение кэша аудио. Да
    Использование указателей C2. Нет
    Коррекция смещения при чтении. 48
    Способность читать области Lead-in и Lead-out. Нет
    Заполнение пропущенных сэмплов тишиной. Да
    Удаление блоков с тишиной в начале и конце. Нет
    При вычислениях CRC использовались нулевые сэмплы. Да
    Интерфейс. Установленный внешний ASPI-интерфейс
    Выходной формат. Внутренние WAV-операции
    Формат сэмплов. 44.100 Гц; 16 бит; стерео
    TOC извлечённого CD
    Трек | Старт | Длительность | Начальный сектор | Конечный сектор
    ---------------------------------------------------------------------
    1 | 0:00.00 | 3:36.02 | 0 | 16201
    2 | 3:36.02 | 4:02.42 | 16202 | 34393
    3 | 7:38.44 | 3:48.04 | 34394 | 51497
    4 | 11:26.48 | 3:31.26 | 51498 | 67348
    5 | 14:57.74 | 4:38.10 | 67349 | 88208
    6 | 19:36.09 | 3:50.38 | 88209 | 105496
    7 | 23:26.47 | 4:10.50 | 105497 | 124296
    8 | 27:37.22 | 4:02.53 | 124297 | 142499
    9 | 31:40.00 | 4:24.59 | 142500 | 162358
    10 | 36:04.59 | 4:13.01 | 162359 | 181334
    11 | 40:17.60 | 4:42.37 | 181335 | 202521
    Характеристики диапазона извлечения и сообщения об ошибках
    Выбранный диапазон
    Имя файла D:\Pupo - Дискография\2007 - Sei Caduto Anche Tu\Pupo - Sei Caduto Anche Tu.wav
    Пиковый уровень 98.8 %
    Качество диапазона 100.0 %
    CRC копии F6197993
    Копирование. OK
    Ошибок не произошло
    AccurateRip: сводка
    Трек 1 нет в базе данных
    Трек 2 нет в базе данных
    Трек 3 нет в базе данных
    Трек 4 нет в базе данных
    Трек 5 нет в базе данных
    Трек 6 нет в базе данных
    Трек 7 нет в базе данных
    Трек 8 нет в базе данных
    Трек 9 нет в базе данных
    Трек 10 нет в базе данных
    Трек 11 нет в базе данных
    Ни одного трека нет в базе AccurateRip
    Конец отчёта

    Производитель диска:Made In Italy
    Продолжительность: 1:01:22:02
    01. L'equilibrista
    02. Lo Devo Solo A Te
    03. Un Uomo Nuovo
    04. Tradimento
    05. Vita Da Artista
    06. Don Raffae
    07. Sei Caduto Anche Tu
    08. Cosi Per Sempre
    09. Ronge Et Noir
    10. Dove Sarai Domani
    11. Su Di Noi
    12. Un Amore Grande
    13. Forse
    14. Firenze S.M.N.

    Exact Audio Copy V0.99 prebeta 4 from 23. January 2008
    Отчёт EAC об извлечении, выполненном 16. октября 2009, 17:34
    Pupo / L'equilibrista
    Дисковод: Optiarc DVD RW AD-5170A Adapter: 0 ID: 0
    Режим чтения. Достоверность
    Использование точного потока. Да
    Отключение кэша аудио. Да
    Использование указателей C2. Нет
    Коррекция смещения при чтении. 48
    Способность читать области Lead-in и Lead-out. Нет
    Заполнение пропущенных сэмплов тишиной. Да
    Удаление блоков с тишиной в начале и конце. Нет
    При вычислениях CRC использовались нулевые сэмплы. Да
    Интерфейс. Установленный внешний ASPI-интерфейс
    Выходной формат. Внутренние WAV-операции
    Формат сэмплов. 44.100 Гц; 16 бит; стерео
    TOC извлечённого CD
    Трек | Старт | Длительность | Начальный сектор | Конечный сектор
    ---------------------------------------------------------------------
    1 | 0:00.00 | 3:43.63 | 0 | 16787
    2 | 3:43.63 | 4:14.17 | 16788 | 35854
    3 | 7:58.05 | 4:36.36 | 35855 | 56590
    4 | 12:34.41 | 3:37.55 | 56591 | 72920
    5 | 16:12.21 | 3:59.30 | 72921 | 90875
    6 | 20:11.51 | 4:30.55 | 90876 | 111180
    7 | 24:42.31 | 3:39.65 | 111181 | 127670
    8 | 28:22.21 | 4:21.15 | 127671 | 147260
    9 | 32:43.36 | 4:03.37 | 147261 | 165522
    10 | 36:46.73 | 3:43.63 | 165523 | 182310
    11 | 40:30.61 | 4:05.71 | 182311 | 200756
    12 | 44:36.57 | 4:17.57 | 200757 | 220088
    13 | 48:54.39 | 3:35.42 | 220089 | 236255
    14 | 52:30.06 | 8:52.04 | 236256 | 276159
    Характеристики диапазона извлечения и сообщения об ошибках
    Выбранный диапазон
    Имя файла D:\Pupo - Дискография\2004 - L'equilibrista\Pupo - L'equilibrista.wav
    Пиковый уровень 100.0 %
    Качество диапазона 100.0 %
    CRC копии 7139A843
    Копирование. OK
    Ошибок не произошло
    AccurateRip: сводка
    Трек 1 нет в базе данных
    Трек 2 нет в базе данных
    Трек 3 нет в базе данных
    Трек 4 нет в базе данных
    Трек 5 нет в базе данных
    Трек 6 нет в базе данных
    Трек 7 нет в базе данных
    Трек 8 нет в базе данных
    Трек 9 нет в базе данных
    Трек 10 нет в базе данных
    Трек 11 нет в базе данных
    Трек 12 нет в базе данных
    Трек 13 нет в базе данных
    Трек 14 нет в базе данных
    Ни одного трека нет в базе AccurateRip
    Конец отчёта

    2005 - C'e Solo Un Momento (Есть Только Миг)

    Производитель диска: Россия
    Продолжительность: 52:01
    01 Tu Vivi Ancora
    02 La Storia Di Noi Due
    03 Cieli Azzurri / Лазурные Небеса (Pupo i Азиза)
    04 Su Di Noi (accoustic version)
    05 Con Il Tempo Capirai
    06 Non Mi Arrandevo Mai / Вернуть Любовь Не Обещай (Pupo i Юлия Началова)
    07 La Mia Anima
    08 Lidia A Mosca
    09 Per Te Saro / О, Где Же Ты, Мечта Моя (Pupo i Антон Макарский)
    10 Bravo
    11 Goodbye Is Not Forever / Это Не Прощание (Pupo i Юлия Началова)
    12 Chissa Se Domani
    13 Ciao
    14 Есть Только Миг (Pupo i Антон Макарский)

    Exact Audio Copy V0.99 prebeta 4 from 23. January 2008
    Отчёт EAC об извлечении, выполненном 27. июня 2009, 18:13
    Pupo / C'e Solo Un Momento
    Дисковод: Optiarc DVD RW AD-5170A Adapter: 0 ID: 0
    Режим чтения. Достоверность
    Использование точного потока. Да
    Отключение кэша аудио. Да
    Использование указателей C2. Нет
    Коррекция смещения при чтении. 48
    Способность читать области Lead-in и Lead-out. Нет
    Заполнение пропущенных сэмплов тишиной. Да
    Удаление блоков с тишиной в начале и конце. Нет
    При вычислениях CRC использовались нулевые сэмплы. Да
    Интерфейс. Установленный внешний ASPI-интерфейс
    Выходной формат. Внутренние WAV-операции
    Формат сэмплов. 44.100 Гц; 16 бит; стерео
    TOC извлечённого CD
    Трек | Старт | Длительность | Начальный сектор | Конечный сектор
    ---------------------------------------------------------------------
    1 | 0:00.00 | 3:50.63 | 0 | 17312
    2 | 3:50.63 | 3:09.45 | 17313 | 31532
    3 | 7:00.33 | 3:39.71 | 31533 | 48028
    4 | 10:40.29 | 3:21.31 | 48029 | 63134
    5 | 14:01.60 | 4:36.21 | 63135 | 83855
    6 | 18:38.06 | 3:11.35 | 83856 | 98215
    7 | 21:49.41 | 3:24.46 | 98216 | 113561
    8 | 25:14.12 | 3:34.38 | 113562 | 129649
    9 | 28:48.50 | 4:18.11 | 129650 | 149010
    10 | 33:06.61 | 3:34.06 | 149011 | 165066
    11 | 36:40.67 | 4:03.46 | 165067 | 183337
    12 | 40:44.38 | 3:30.57 | 183338 | 199144
    13 | 44:15.20 | 4:08.13 | 199145 | 217757
    14 | 48:23.33 | 3:37.53 | 217758 | 234085
    Характеристики диапазона извлечения и сообщения об ошибках
    Выбранный диапазон
    Имя файла D:\Pupo\Pupo - C'e Solo Un Momento 2005\Pupo - C'e Solo Un Momento.wav
    Пиковый уровень 100.0 %
    Качество диапазона 100.0 %
    CRC копии 47686FA6
    Копирование. OK
    Ошибок не произошло
    AccurateRip: сводка
    Трек 1 нет в базе данных
    Трек 2 нет в базе данных
    Трек 3 нет в базе данных
    Трек 4 нет в базе данных
    Трек 5 нет в базе данных
    Трек 6 нет в базе данных
    Трек 7 нет в базе данных
    Трек 8 нет в базе данных
    Трек 9 нет в базе данных
    Трек 10 нет в базе данных
    Трек 11 нет в базе данных
    Трек 12 нет в базе данных
    Трек 13 нет в базе данных
    Трек 14 нет в базе данных
    Ни одного трека нет в базе AccurateRip
    Конец отчёта

    Мои раздачи
    Все Рипы с Собственных CD
    Исключение 1998 - L'album Dei Ricordi (Большая Благодарность за Предоставленный Альбом MiniMax1).
    1989 - Domenica Insieme (Большая Благодарность за Предоставленный Альбом jazzluq)
    1986 - La Vita E Molto Di Piu (Большая Благодарность за Предоставленный Альбом MiniMax1)

    Pupo дискография mp3 скачать торрентСкачать раздачу по magnet-ссылке · 6.28 GB

    Чтобы скачать .torrent файл необходима регистрация

    это все альбомы?

    Нет, не все. Но это уже что-то! Нужно некоторые альбомы заменить на фирменные копии (с разрешения авторов тех раздач) и постепенно сделать настоящую дискографию. А так, это что-то типа дискографии.
    Sei caduto anche tu не 2007 года а 2000. Нужно исправить.
    И еще в официальной дискографии нет альбомов
    1992 - La Mia Preghiera
    2005 - C'e Solo Un Momento
    Детальней опишите их пожалуйста, вместо них включены альбомы:
    Enzo Ghinazzi 1 (1992)
    All the best (1994)
    Почему?
    А в целом приношу свои извинения. Действительно других раздач номерных альбомов здесь на торрентс.ру нет.
    Спасибо большое. Качать однозначно!

    Стаж: 8 лет 4 месяца

    Pupo11 · 19-Окт-09 18:47 (спустя 1 час 20 мин. ред. 19-Окт-09 20:45)

    dikaruga
    Номерные все кроме первого Come Sei Bella Его если только с винила кто то сделает (будет Здорово) на CD он не выходил как и многие ранние альбомы.
    Сборников у меня нет на Audio CD достаточно на MP3 там просто песни местами меняют и всё.
    Zazzillop
    И где ты видел фирменые CD Pupo которых у меня нет. Подскажи куплю
    espoir
    Дооформил Проверьте Пожалуйста

    Стаж: 10 лет 11 месяцев

    espoir · 19-Окт-09 19:36 (спустя 48 мин.)

    Pupo11 отлично, но осталась еще пара моментов
    1. Ввиду того, что раздача пока не является полным собранием альбомов, измените пожалуйста название с дискографии на следующее:
    (Pop) Pupo - ХХ Albums (XX CD). FLAC (image+.cue), lossless
    где ХХ - количество дисков и альбомов
    2.

    При добавлении обложки к вашей раздаче учитывайте, что минимальный размер обложки должен составлять 200x200 pixels, максимальный 500x500 pixels.

    Необходимо изменить обложки в соответствии с этим требованием
    Дооформите, пожалуйста

    Стаж: 8 лет 4 месяца

    Pupo11 · 19-Окт-09 20:17 (спустя 41 мин. ред. 20-Окт-09 12:24)

    espoir
    Вроде Сделал
    Zazzillop
    Просто Pupo на фирме CD мало что выходило (даже с золотой поры).
    А сборники меня на cd не интересуют.
    Если Будут Выпускать особенно рание альбомы обязательно преобрету.
    Ce solo un momento - Это всё что он пел с нашими звёздами + несколько переделок в целом интересно.
    La Mia Preghiera - на этом диске есть 5 песен ни куда невходивших + несколько переделок мне понравился

    Стаж: 9 лет 4 месяца

    jabbar · 24-Ноя-09 09:14 (спустя 1 месяц 4 дня)

    Cпасибо! Словно в молодости на экскурсии побывал.

    Pupo дискография mp3 скачать торрент

    Стаж: 8 лет 10 месяцев

    morzeabv · 17-Дек-09 10:29 (спустя 23 дня)

    есть кто на раздаче?

    Pupo дискография mp3 скачать торрент

    Стаж: 8 лет 10 месяцев

    morzeabv · 18-Дек-09 12:23 (спустя 1 день 1 час)

    Подскажите ктонить плиз как теперь записать эту шнягу на ДВД диск или хотябы на компакдиски чтоб слушать в машине?

    Pupo дискография mp3 скачать торрент

    Стаж: 8 лет 10 месяцев

    morzeabv · 20-Дек-09 20:40 (спустя 2 дня 8 часов)

    ту которую я скачал, ни одна виртуалка и писалка не распознает образ, как записать музыку на диск или перегнать в мр3?

    Стаж: 8 лет 4 месяца

    Pupo11 · 21-Дек-09 11:21 (спустя 14 часов)

    morzeabv
    А зачем качать шнягу? 210 скачавших и все смогли записать. Если хочеш оставить в Аудио формате попробуй Exact Audio Copy.Вот тут скачай и почитай http://maintracker.org/forum/viewtopic.php?t=1089545
    .

    Pupo дискография mp3 скачать торрент

    Стаж: 8 лет 10 месяцев

    morzeabv · 21-Дек-09 14:30 (спустя 3 часа)

    Толи лыжи не едут, толи я дурак http://maintracker.org/forum/viewtopic.php?t=1089545
    это ссылка на то Как правильно настроить EAC и снять рип образом (image+.cue)
    так рип снял уже ты, а как его записать на диск я не нашел =(