Софт-Портал

скачать торрент крематорий

Рейтинг: 4.7/5.0 (523 проголосовавших)

Категория: Торрент-файлы

Описание

Скачать альбом Crematory - Live Insurrection (2017)

Скачать альбом Crematory - Live Insurrection (2017) бесплатно

Скачать торрент крематорий


Исполнитель: Crematory
Альбом: Live Insurrection
Год выхода: 2017
Жанр: Gothic Metal / Industrial Metal
Формат / Битрейт: МР3 / 320 kbps
Размер: 164 Mb
Время: 01:16:23

Crematory — немецкая метал-группа. Сформирована в Германии в 1991 году. Группа стала узнаваемой в середине 1990-х, выступая в турне на разогреве таких команд как My Dying Bride, Tiamat и Atrocity. Группа начала с традиционного стиля дэт-метал, затем взяла направления индастриал и готик-метал в записях поздних альбомов.

Tracklist:
01. Intro
02. Misunderstood
03. Fly
04. Greed
05. Tick Tack
06. Instrumental
07. Haus mit Garten
08. Ravens Calling
09. Pray
10. Everything
11. Instrumental
12. Shadowmaker
13. The Fallen
14. Höllenbrand
15. Die So Soon
16. Kommt näher
17. Tears Of Time

Скачать Crematory - Live Insurrection (2017)


Если ссылки не работают,
Ссылки будут восстановлены в кратчайшие сроки.
  • Основные разделы

    © Copyright 2005-2015. CitySmile.ORG

    Настоящий ресурс может содержать материалы 18+

    Вся информация размещена на основании соглашения
    Внимание, вся информация размещена на сайте пользователями, поэтому владельцы сайта не несут ответственности за правдивость, валидность, степень контрафактности.
    Администрация сайта не несёт ответственности за контент представленный по внешним ссылкам!

  • скачать торрент крематорий:

  • скачать
  • скачать
  • Другие статьи

    Крематорий - дискография (1983-2016) FLAC, Lossless - Rock

    Крематорий - Дискография (1983-2016) Год: 1983-2016
    Жанр: Rock
    Продолжительность: 38:05:55
    Кодек: FLAC
    Битрейт: lossless
    Трек лист:

    Продолжительность 00:46:15
    01. Конформист Морозов (3:24)
    02. Ты Была Той Женщиной (1:35)
    03. Я Увидел Тебя (2:46)
    04. Стрёмный Корабль (1:35)
    05. Посвящение Бывшей Подруге (2:43)
    06. Глотатель Портвейна (3:00)
    07. Джентльмены И Леди (2:29)
    08. Крематорий (3:00)
    09. Брюс - Колдун (2:56)
    10. Катаклизм (1:58)
    11. Таня (4:10)
    12. Я Сижу В W (3:21)
    13. Винные Мемуары (3:40)
    14. Чёрная Пятница (3:39)
    15. Снова Ночью (2:17)
    16. Крылатые Слоны (3:43

    DON'T MODIFY THIS FILE

    PERFORMER: auCDtect Task Manager, ver. 1.5.1RC4 build 1.5.1.5
    Copyright (c) 2008-2010 y-soft. All rights reserved
    http://y-soft.org

    ANALYZER: auCDtect: CD records authenticity detector, version 0.8.2
    Copyright (c) 2004 Oleg Berngardt. All rights reserved.
    Copyright (c) 2004 Alexander Djourik. All rights reserved.

    FILE: Крематорий - Винные Мемуары.flac
    Size: 282739767 Hash: BAA7B8BAB836FF098055DAEB93CC6D2D Accuracy: -m0
    Conclusion: CDDA 100%
    Signature: 2B764BB925637F22F868242020178DA395AF7DD3

    Отчёт EAC об извлечении, выполненном 2. апреля 2008, 9:47 для диска:
    Крематорий / Винные Мемуары

    Дисковод: HL-DT-STDVD-RW GWA-4082N Adapter: 1 ID: 0
    Режим чтения: Достоверный (C2: нет, Точный поток: да, Отключение кэша: да)
    Коррекция смещения при чтении: 667
    Способность читать области Lead-in и Lead-out. Нет

    Выходной формат: Внутренние WAV-операции
    44.100 Гц; 16 бит; стерео

    Другие параметры:
    Заполнение пропущенных сэмплов тишиной. Да
    Удаление блоков с тишиной в начале и конце. Нет
    Встроенный Win32-интерфейс для Win NT/2000

    Характеристики диапазона извлечения и сообщения об ошибках
    Выбранный диапазон
    Имя файла D:\krematorium\Крематорий- Винные Мемуары\Крематорий - Винные Мемуары.wav

    Пиковый уровень 89.1 %
    Качество диапазона 100.0 %
    CRC D8CC56A6
    Копирование. OK

    Ошибок не произошло

    Продолжительность 01:13:20
    01. Конформист Морозов (3:21)
    02. Ты была той женщиной (1:32)
    03. Глотатель портвейна (3:04)
    04. Джентельмены и леди (2:03)
    05. Крематорий (1:49)
    06. Брюс - колдун (2:35)
    07. Катаклизм (1:39)
    08. Таня (4:07)
    09. Я сижу в w (3:02)
    10. Vinus Memoirs (2:54)
    11. Черная пятница (3:16)
    12. Снова ночью (2:17)
    13. Лепрозорий (4:10)
    14. Аутсайдер (3:39)
    15. Конфуз (1:06)
    16. Стремный корабль (1:30)
    17. Пророк на карусели (4:27)
    18. Моя соседка (3:14)
    19. Посвящение бывшей подруге (2:11)
    20. Житейская смерть (3:13)
    21. Я тихо и скромно (3:04)
    22. Сидя на рейсшине (4:03)
    23. Я увидел тебя (3:07)
    24. Проснись, нас обокрали (3:56)
    25. Моя крепость (4:00)

    DON'T MODIFY THIS FILE

    PERFORMER: auCDtect Task Manager, ver. 1.5.1RC4 build 1.5.1.5
    Copyright (c) 2008-2010 y-soft. All rights reserved
    http://y-soft.org

    ANALYZER: auCDtect: CD records authenticity detector, version 0.8.2
    Copyright (c) 2004 Oleg Berngardt. All rights reserved.
    Copyright (c) 2004 Alexander Djourik. All rights reserved.

    FILE: Крематорий - Винные Мемуары - Крематорий 2.flac
    Size: 422698335 Hash: C2520359D5BBE49538110AB9D0B912BC Accuracy: -m0
    Conclusion: CDDA 100%
    Signature: 79E3D4440D5DF5DEC41123B0563FDF5DC5A923B2

    Exact Audio Copy V0.99 prebeta 4 from 23. January 2008

    Отчёт EAC об извлечении, выполненном 7. июня 2008, 1:41

    Unknown Artist / Unknown Title

    Дисковод: PIONEER DVD-RW DVR-109 Adapter: 0 ID: 0

    Режим чтения. Достоверность
    Использование точного потока. Да
    Отключение кэша аудио. Да
    Использование указателей C2. Нет

    Коррекция смещения при чтении. 48
    Способность читать области Lead-in и Lead-out. Нет
    Заполнение пропущенных сэмплов тишиной. Да
    Удаление блоков с тишиной в начале и конце. Нет
    При вычислениях CRC использовались нулевые сэмплы. Нет
    Интерфейс. Встроенный Win32-интерфейс для Win NT/2000

    Выходной формат. Внутренние WAV-операции
    Формат сэмплов. 44.100 Гц; 16 бит; стерео

    TOC извлечённого CD

    Трек | Старт | Длительность | Начальный сектор | Конечный сектор
    ---------------------------------------------------------------------
    1 | 0:00.00 | 3:21.30 | 0 | 15104
    2 | 3:21.30 | 1:31.55 | 15105 | 21984
    3 | 4:53.10 | 3:03.65 | 21985 | 35774
    4 | 7:57.00 | 2:03.25 | 35775 | 45024
    5 | 10:00.25 | 1:49.33 | 45025 | 53232
    6 | 11:49.58 | 2:35.02 | 53233 | 64859
    7 | 14:24.60 | 1:39.17 | 64860 | 72301
    8 | 16:04.02 | 4:06.53 | 72302 | 90804
    9 | 20:10.55 | 3:01.47 | 90805 | 104426
    10 | 23:12.27 | 2:54.15 | 104427 | 117491
    11 | 26:06.42 | 3:16.33 | 117492 | 132224
    12 | 29:23.00 | 2:17.18 | 132225 | 142517
    13 | 31:40.18 | 4:09.43 | 142518 | 161235
    14 | 35:49.61 | 3:38.55 | 161236 | 177640
    15 | 39:28.41 | 1:06.07 | 177641 | 182597
    16 | 40:34.48 | 1:30.12 | 182598 | 189359
    17 | 42:04.60 | 4:27.00 | 189360 | 209384
    18 | 46:31.60 | 3:14.20 | 209385 | 223954
    19 | 49:46.05 | 2:11.17 | 223955 | 233796
    20 | 51:57.22 | 3:12.65 | 233797 | 248261
    21 | 55:10.12 | 3:04.22 | 248262 | 262083
    22 | 58:14.34 | 4:02.48 | 262084 | 280281
    23 | 62:17.07 | 3:07.07 | 280282 | 294313
    24 | 65:24.14 | 3:55.55 | 294314 | 311993
    25 | 69:19.69 | 4:00.12 | 311994 | 330005

    Характеристики диапазона извлечения и сообщения об ошибках

    Имя файла G:\blabla\Unknown Artist - Unknown Title.wav

    Пиковый уровень 95.9 %
    CRC теста DA4C68B2
    CRC копии DA4C68B2
    Копирование завершено

    Ошибок не произошло

    Продолжительность 00:54:07
    01. Лепрозорий (4:22)
    02. Крематорий (1:24)
    03. Аутсайдер (3:54)
    04. Конфуз (1:02)
    05. Стрёмный корабль (1:30)
    06. Пророк на карусели (4:46)
    07. Моя соседка (3:13)
    08. Посвящение бывшей подруге (2:11)
    09. Vinus Memoirs (2:49)
    10. Житейская смерть (3:07)
    11. Я тихо и скромно (3:09)
    12. Сидя на рейсшине (4:06)
    13. Я увидел тебя (3:08)
    14. Проснись, нас обокрали (3:52)
    15. Моя крепость (4:03)
    16. Танец 'Альфонсо' (3:13)
    17. Последнее слово (4:19)

    DON'T MODIFY THIS FILE

    PERFORMER: auCDtect Task Manager, ver. 1.5.1RC4 build 1.5.1.5
    Copyright (c) 2008-2010 y-soft. All rights reserved
    http://y-soft.org

    ANALYZER: auCDtect: CD records authenticity detector, version 0.8.2
    Copyright (c) 2004 Oleg Berngardt. All rights reserved.
    Copyright (c) 2004 Alexander Djourik. All rights reserved.

    FILE: Крематорий - Крематорий 2.flac
    Size: 283675033 Hash: B9DA722D622AC21F6E41AB3152E116AD Accuracy: -m0
    Conclusion: CDDA 100%
    Signature: 900B5C36FA5AFA9F59F2B1D918F302A3091D1C02

    EAC extraction logfile from 8. September 2007, 13:52 for CD
    Крематорий / Крематорий 2

    Used drive. SlimtypeDVDRW SSW-8015S Adapter: 1 ID: 0
    Read mode. Secure with NO C2, accurate stream, disable cache
    Read offset correction. 594
    Overread into Lead-In and Lead-Out. No

    Used output format. C:\Programme\wavpack 4.41\wavpack.exe (User Defined Encoder)
    128 kBit/s
    Additional command line options. -hh -w "Cuesheet=@*.cue" -w "Artist=%a" -w "Album=%g" -w "Year=%y" -w "Genre=%m" %s %d

    Other options :
    Fill up missing offset samples with silence. Yes
    Delete leading and trailing silent blocks. No
    Installed external ASPI interface

    Range status and errors
    Selected range
    Filename D:\images\Крематорий - Крематорий 2.wav

    Peak level 79.4 %
    Range quality 100.0 %
    CRC EC4BE0EE
    Copy OK

    No errors occured

    End of status report

    Продолжительность 00:41:50
    01. Sky (1:23)
    02. Иллюзорный Мир (3:19)
    03. Кокаин (3:42)
    04. Африканский Царь (2:10)
    05. Ты Бежал За Мной (0:59)
    06. Опус Х (2:02)
    07. Sexy Cat (2:15)
    08. Медуза-Горгона (3:25)
    09. Себастия (2:32)
    10. Крылатые Слоны (4:14)
    11. Танец «Альфонсо» (2:46)
    12. Наше Время (4:22)
    13. Америка (3:02)
    14. Маленькая Девочка (2:25)
    15. Круг Сумасшедшей Анны (3:16)

    DON'T MODIFY THIS FILE

    PERFORMER: auCDtect Task Manager, ver. 1.5.1RC4 build 1.5.1.5
    Copyright (c) 2008-2010 y-soft. All rights reserved
    http://y-soft.org

    ANALYZER: auCDtect: CD records authenticity detector, version 0.8.2
    Copyright (c) 2004 Oleg Berngardt. All rights reserved.
    Copyright (c) 2004 Alexander Djourik. All rights reserved.

    FILE: Крематорий - Илюзорный Мир.flac
    Size: 273454606 Hash: 9E464B3D706C44233196A9CEC04FDD06 Accuracy: -m0
    Conclusion: CDDA 100%
    Signature: C1A472328C11A9969422D0477B009C586D232AFE

    Отчёт EAC об извлечении, выполненном 5. апреля 2008, 20:19 для диска:
    Крематорий / Илюзорный Мир

    Дисковод: HL-DT-STDVD-RW GWA-4082N Adapter: 1 ID: 0
    Режим чтения: Достоверный (C2: нет, Точный поток: да, Отключение кэша: да)
    Коррекция смещения при чтении: 667
    Способность читать области Lead-in и Lead-out. Нет

    Выходной формат: Внутренние WAV-операции
    44.100 Гц; 16 бит; стерео

    Другие параметры:
    Заполнение пропущенных сэмплов тишиной. Да
    Удаление блоков с тишиной в начале и конце. Нет
    Встроенный Win32-интерфейс для Win NT/2000

    Характеристики диапазона извлечения и сообщения об ошибках
    Выбранный диапазон
    Имя файла D:\crematorium\Крематорий - Илюзорный Мир\Крематорий - Илюзорный Мир.wav

    Пиковый уровень 99.9 %
    Качество диапазона 100.0 %
    CRC 910EE7F0
    Копирование. OK

    Ошибок не произошло

    Продолжительность 00:41:17
    01. Sky (1:15)
    02. Кокаин (3:29)
    03. Африканский Царь (2:09)
    04. Ты Бежал За Мной (1:07)
    05. Опус X (2:11)
    06. Sexy Cat (2:14)
    07. Медуза-Горгона (3:28)
    08. Себастия (2:43)
    09. Танец 'Альфонсо' (2:48)
    10. Наше Время (4:22)
    11. Клубника Со Льдом (3:01)
    12. Америка (2:59)
    13. Маленькая Девочка (2:25)
    14. Круг Сумасшедшей Анны (3:21)
    15. Крылатые Слоны (3:44)

    DON'T MODIFY THIS FILE

    PERFORMER: auCDtect Task Manager, ver. 1.5.1RC4 build 1.5.1.5
    Copyright (c) 2008-2010 y-soft. All rights reserved
    http://y-soft.org

    ANALYZER: auCDtect: CD records authenticity detector, version 0.8.2
    Copyright (c) 2004 Oleg Berngardt. All rights reserved.
    Copyright (c) 2004 Alexander Djourik. All rights reserved.

    FILE: Крематорий - Иллюзорный Мiр.flac
    Size: 250997501 Hash: 25033218E3C5CA2670A3944CA6B616A7 Accuracy: -m0
    Conclusion: CDDA 100%
    Signature: 8ED8CC4B270CCA1E078BEF9B420913099ACA61DD

    Exact Audio Copy V0.99 prebeta 4 from 23. January 2008

    Отчёт EAC об извлечении, выполненном 8. июня 2008, 5:24

    Unknown Artist / Unknown Title

    Дисковод: PIONEER DVD-RW DVR-109 Adapter: 0 ID: 0

    Режим чтения. Достоверность
    Использование точного потока. Да
    Отключение кэша аудио. Да
    Использование указателей C2. Нет

    Коррекция смещения при чтении. 48
    Способность читать области Lead-in и Lead-out. Нет
    Заполнение пропущенных сэмплов тишиной. Да
    Удаление блоков с тишиной в начале и конце. Нет
    При вычислениях CRC использовались нулевые сэмплы. Нет
    Интерфейс. Встроенный Win32-интерфейс для Win NT/2000

    Выходной формат. Внутренние WAV-операции
    Формат сэмплов. 44.100 Гц; 16 бит; стерео

    TOC извлечённого CD

    Трек | Старт | Длительность | Начальный сектор | Конечный сектор
    ---------------------------------------------------------------------
    1 | 0:00.00 | 1:15.37 | 0 | 5661
    2 | 1:15.37 | 3:28.60 | 5662 | 21321
    3 | 4:44.22 | 2:09.25 | 21322 | 31021
    4 | 6:53.47 | 1:07.03 | 31022 | 36049
    5 | 8:00.50 | 2:10.70 | 36050 | 45869
    6 | 10:11.45 | 2:13.50 | 45870 | 55894
    7 | 12:25.20 | 3:27.45 | 55895 | 71464
    8 | 15:52.65 | 2:43.17 | 71465 | 83706
    9 | 18:36.07 | 2:48.23 | 83707 | 96329
    10 | 21:24.30 | 4:21.47 | 96330 | 115951
    11 | 25:46.02 | 3:01.25 | 115952 | 129551
    12 | 28:47.27 | 2:58.63 | 129552 | 142964
    13 | 31:46.15 | 2:24.47 | 142965 | 153811
    14 | 34:10.62 | 3:21.33 | 153812 | 168919
    15 | 37:32.20 | 3:44.65 | 168920 | 185784

    Характеристики диапазона извлечения и сообщения об ошибках

    Имя файла G:\blabla\7\Unknown Artist - Unknown Title.wav

    Пиковый уровень 99.9 %
    CRC теста 00269A21
    CRC копии 00269A21
    Копирование завершено

    Ошибок не произошло

    Продолжительность 00:43:43
    01. Крематорий (2:04)
    02. Лепрозорий (4:08)
    03. Аутсайдер (3:07)
    04. Павлик Морозов (5:18)
    05. Безобразная Эльза (2:59)
    06. Сексуальная кошка (2:19)
    07. Мусорный ветер (2:53)
    08. Америка (3:15)
    09. Себастия (эльдорадо) (2:41)
    10. Хабибуллин (3:25)
    11. Кондратий (1:18)
    12. Таня (4:29)
    13. Наре Рама (3:40)
    14. Маленькая девочка (2:08)

    DON'T MODIFY THIS FILE

    PERFORMER: auCDtect Task Manager, ver. 1.5.1RC4 build 1.5.1.5
    Copyright (c) 2008-2010 y-soft. All rights reserved
    http://y-soft.org

    ANALYZER: auCDtect: CD records authenticity detector, version 0.8.2
    Copyright (c) 2004 Oleg Berngardt. All rights reserved.
    Copyright (c) 2004 Alexander Djourik. All rights reserved.

    FILE: Крематорий - Живые и мертвые.flac
    Size: 280430690 Hash: ED0C5FDEC82A2BFFE10A72991301D437 Accuracy: -m0
    Conclusion: CDDA 99%
    Signature: 4680CC38718B1F1DBE2A0176D380FEAF9955FDB0

    Exact Audio Copy V0.99 prebeta 4 from 23. January 2008

    Отчёт EAC об извлечении, выполненном 14. апреля 2008, 4:02

    Крематорий / Живые и мертвые

    Дисковод: ASUS DRW-1814BLT Adapter: 1 ID: 0

    Режим чтения. Достоверность
    Использование точного потока. Да
    Отключение кэша аудио. Да
    Использование указателей C2. Нет

    Коррекция смещения при чтении. 6
    Способность читать области Lead-in и Lead-out. Нет
    Заполнение пропущенных сэмплов тишиной. Да
    Удаление блоков с тишиной в начале и конце. Нет
    При вычислениях CRC использовались нулевые сэмплы. Да
    Интерфейс. Установленный внешний ASPI-интерфейс

    Выходной формат. Внутренние WAV-операции
    Формат сэмплов. 44.100 Гц; 16 бит; стерео

    Характеристики диапазона извлечения и сообщения об ошибках

    Имя файла C:\tmp2\Крематорий - Живые и мертвые.wav

    Пиковый уровень 89.1 %
    Качество диапазона 100 %
    CRC копии 75A53CD1
    Копирование. OK

    Ошибок не произошло

    Продолжительность 00:52:30
    01. Крематорий (1:56)
    02. Лепрозорий (4:06)
    03. Аутсайдер (3:03)
    04. Безобразная Эльза (5:10)
    05. Sexy Cat (3:04)
    06. Павлик Морозов (2:21)
    07. Себастия (2:56)
    08. Хабибулин (3:15)
    09. Кондратий (2:49)
    10. Мусорный ветер (3:33)
    11. Америка (1:21)
    12. Таня (4:31)
    13. Харе Рама (3:25)
    14. Хардрокер (4:07)
    15. Маленькая девочка (2:12)
    16. Мир, полный любви (4:41)

    DON'T MODIFY THIS FILE

    PERFORMER: auCDtect Task Manager, ver. 1.5.1RC4 build 1.5.1.5
    Copyright (c) 2008-2010 y-soft. All rights reserved
    http://y-soft.org

    ANALYZER: auCDtect: CD records authenticity detector, version 0.8.2
    Copyright (c) 2004 Oleg Berngardt. All rights reserved.
    Copyright (c) 2004 Alexander Djourik. All rights reserved.

    FILE: Крематорий - Живые и Мертвые.flac
    Size: 326963980 Hash: 7A9C6E5D2F3E587807531B52E990FD2A Accuracy: -m0
    Conclusion: CDDA 100%
    Signature: BE1C1057AB88CCD78AC6CD54D3A0C37FB1B86AD1

    Отчёт EAC об извлечении, выполненном 2. апреля 2008, 23:03 для диска:
    Крематорий / Живые и Мертвые

    Дисковод: HL-DT-STDVD-RW GWA-4082N Adapter: 1 ID: 0
    Режим чтения: Достоверный (C2: нет, Точный поток: да, Отключение кэша: да)
    Коррекция смещения при чтении: 667
    Способность читать области Lead-in и Lead-out. Нет

    Выходной формат: Внутренние WAV-операции
    44.100 Гц; 16 бит; стерео

    Другие параметры:
    Заполнение пропущенных сэмплов тишиной. Да
    Удаление блоков с тишиной в начале и конце. Нет
    Встроенный Win32-интерфейс для Win NT/2000

    Характеристики диапазона извлечения и сообщения об ошибках
    Выбранный диапазон
    Имя файла D:\crematorium\Крематорий - Живые и Мертвые\Крематорий - Живые и Мертвые.wav

    Пиковый уровень 99.7 %
    Качество диапазона 100.0 %
    CRC 21907001
    Копирование. OK

    Ошибок не произошло

    Продолжительность 00:46:47
    01. Introduction (Кома) (0:29)
    02. Реанимационная Машина (4:38)
    03. Безобразная Эльза (2:58)
    04. Африка (3:30)
    05. Клаустрофобия (5:32)
    06. Хабибулин (3:32)
    07. Кондратий (1:25)
    08. Моя Деревня (Хит-Парад '88) (2:34)
    09. Мусорный Ветер (3:06)
    10. Гимн Мёртвым (3:00)
    11. Пир Белых Мумий (4:18)
    12. Гончие Псы (3:33)
    13. Харе Рама (3:25)
    14. El Final De La Vida (0:38)
    15. Feast Of White Mummies [Bonus Track] (4:10)

    DON'T MODIFY THIS FILE

    PERFORMER: auCDtect Task Manager, ver. 1.5.1RC4 build 1.5.1.5
    Copyright (c) 2008-2010 y-soft. All rights reserved
    http://y-soft.org

    ANALYZER: auCDtect: CD records authenticity detector, version 0.8.2
    Copyright (c) 2004 Oleg Berngardt. All rights reserved.
    Copyright (c) 2004 Alexander Djourik. All rights reserved.

    FILE: Крематорий - Кома.flac
    Size: 307410290 Hash: ED88CF1CA3979953DCEA150CBF26A90B Accuracy: -m0
    Conclusion: CDDA 99%
    Signature: C4DDB7D1D92B807F183624CB26C815E061E466BA

    Exact Audio Copy V0.99 prebeta 4 from 23. January 2008

    Отчёт EAC об извлечении, выполненном 14. апреля 2008, 3:33

    Дисковод: ASUS DRW-1814BLT Adapter: 1 ID: 0

    Режим чтения. Достоверность
    Использование точного потока. Да
    Отключение кэша аудио. Да
    Использование указателей C2. Нет

    Коррекция смещения при чтении. 6
    Способность читать области Lead-in и Lead-out. Нет
    Заполнение пропущенных сэмплов тишиной. Да
    Удаление блоков с тишиной в начале и конце. Нет
    При вычислениях CRC использовались нулевые сэмплы. Да
    Интерфейс. Установленный внешний ASPI-интерфейс

    Выходной формат. Внутренние WAV-операции
    Формат сэмплов. 44.100 Гц; 16 бит; стерео

    Характеристики диапазона извлечения и сообщения об ошибках

    Имя файла C:\tmp2\Крематорий - Кома.wav

    Пиковый уровень 89.1 %
    Качество диапазона 100 %
    CRC копии 77D857BE
    Копирование. OK

    Ошибок не произошло

    Продолжительность 00:47:18
    01. Introduction /Кома/ (0:27)
    02. Реанимационная машина (4:45)
    03. Безобразная Эльза (3:00)
    04. Африка (3:29)
    05. Клаустрофобия (5:36)
    06. Хабибулин (3:33)
    07. Кондратий (1:19)
    08. Мусорный ветер (2:52)
    09. Моя деревня/Хит-парад'88/ (2:32)
    10. Пир белых мумий (4:16)
    11. Собачий вальс (3:25)
    12. Гончие псы (3:34)
    13. Харе Рама (3:19)
    14. El final de la vida (0:32)
    15. Эпилог/Космос/ (4:39)

    DON'T MODIFY THIS FILE

    PERFORMER: auCDtect Task Manager, ver. 1.5.1RC4 build 1.5.1.5
    Copyright (c) 2008-2010 y-soft. All rights reserved
    http://y-soft.org

    ANALYZER: auCDtect: CD records authenticity detector, version 0.8.2
    Copyright (c) 2004 Oleg Berngardt. All rights reserved.
    Copyright (c) 2004 Alexander Djourik. All rights reserved.

    FILE: Крематорий - Кома.flac
    Size: 275764337 Hash: 9F8335F9703E7CC2F5FAF31DE823125B Accuracy: -m0
    Conclusion: CDDA 100%
    Signature: D2A87931A0A5446B39A32DA0FB05131F148F55F2

    Отчёт EAC об извлечении, выполненном 29. марта 2008, 20:11 для диска:
    Крематорий / Кома

    Дисковод: HL-DT-STDVD-RW GWA-4082N Adapter: 1 ID: 0
    Режим чтения: Достоверный (C2: нет, Точный поток: да, Отключение кэша: да)
    Коррекция смещения при чтении: 667
    Способность читать области Lead-in и Lead-out. Нет

    Выходной формат: Внутренние WAV-операции
    44.100 Гц; 16 бит; стерео

    Другие параметры:
    Заполнение пропущенных сэмплов тишиной. Да
    Удаление блоков с тишиной в начале и конце. Нет
    Встроенный Win32-интерфейс для Win NT/2000

    Характеристики диапазона извлечения и сообщения об ошибках
    Выбранный диапазон
    Имя файла D:\krematorium\Крематорий - Кома\Крематорий - Кома.wav

    Пиковый уровень 90.2 %
    Качество диапазона 100.0 %
    CRC 03AE00DA
    Копирование. OK

    Ошибок не произошло

    Продолжительность 01:00:53
    01. Мир, полный любви (5:43)
    02. Женщины города роз (6:02)
    03. Хардрокер (4:06)
    04. Архип Архипыч (Космос) (4:38)
    05. Павлик Морозов (5:19)
    06. Фригия (5:00)
    07. Собачий вальс (3:42)
    08. Последний шанс (Собачка) (4:00)
    09. Клубника со льдом (3:12)
    10. Feast of White Mummies (4:15)
    11. Иллюзорный Мiр (3:23)
    12. Гимн мертвым (3:00)
    13. Крематорий (1:23)
    14. Винные мемуары (2:51)
    15. Последнее слово (4:19)

    DON'T MODIFY THIS FILE

    PERFORMER: auCDtect Task Manager, ver. 1.5.1RC4 build 1.5.1.5
    Copyright (c) 2008-2010 y-soft. All rights reserved
    http://y-soft.org

    ANALYZER: auCDtect: CD records authenticity detector, version 0.8.2
    Copyright (c) 2004 Oleg Berngardt. All rights reserved.
    Copyright (c) 2004 Alexander Djourik. All rights reserved.

    FILE: Крематорий - Клубника со льдом.flac
    Size: 345743281 Hash: D6D7D9E9DB38D44E0C435443092151BF Accuracy: -m0
    Conclusion: CDDA 99%
    Signature: 88B7FF81869EDF8BB103006E4E2D039CD484BB08

    Отчёт EAC об извлечении, выполненном 29. марта 2008, 16:42 для диска:
    Крематорий / Клубника со льдом

    Дисковод: HL-DT-STDVD-RW GWA-4082N Adapter: 1 ID: 0
    Режим чтения: Достоверный (C2: нет, Точный поток: да, Отключение кэша: да)
    Коррекция смещения при чтении: 667
    Способность читать области Lead-in и Lead-out. Нет

    Выходной формат: Внутренние WAV-операции
    44.100 Гц; 16 бит; стерео

    Другие параметры:
    Заполнение пропущенных сэмплов тишиной. Да
    Удаление блоков с тишиной в начале и конце. Нет
    Встроенный Win32-интерфейс для Win NT/2000

    Характеристики диапазона извлечения и сообщения об ошибках
    Выбранный диапазон
    Имя файла D:\krematorium\Крематорий - Клубника со льдом\Крематорий - Клубника со льдом.wav

    Пиковый уровень 82.3 %
    Качество диапазона 100.0 %
    CRC FEF0A4F9
    Копирование. OK

    Ошибок не произошло

    Продолжительность 00:44:50
    01. Мир, полный любви (5:41)
    02. Женщины города Роз (5:58)
    03. Хардрокер (4:05)
    04. Архип Архипыч (Космос) (4:41)
    05. Павлик Морозов (5:18)
    06. Фригия (5:01)
    07. Собачий вальс (3:58)
    08. Последний шанс (Собачка) (3:37)
    09. Клубника со льдом (3:09)
    10. Собачий вальс (bonus track версия 1998 года) (3:21)

    DON'T MODIFY THIS FILE

    PERFORMER: auCDtect Task Manager, ver. 1.5.1RC4 build 1.5.1.5
    Copyright (c) 2008-2010 y-soft. All rights reserved
    http://y-soft.org

    ANALYZER: auCDtect: CD records authenticity detector, version 0.8.2
    Copyright (c) 2004 Oleg Berngardt. All rights reserved.
    Copyright (c) 2004 Alexander Djourik. All rights reserved.

    FILE: Крематорий - Клубника со льдом.flac
    Size: 296940642 Hash: 6A4771BB693DA88BA926EE23AC841AD0 Accuracy: -m0
    Conclusion: CDDA 100%
    Signature: 348DA6CF53A82E1A36D5C767D4A0EEE4BFFF7E6A

    Exact Audio Copy V0.99 prebeta 4 from 23. January 2008

    Отчёт EAC об извлечении, выполненном 8. июня 2008, 4:22

    Unknown Artist / Unknown Title

    Дисковод: PIONEER DVD-RW DVR-109 Adapter: 0 ID: 0

    Режим чтения. Достоверность
    Использование точного потока. Да
    Отключение кэша аудио. Да
    Использование указателей C2. Нет

    Коррекция смещения при чтении. 48
    Способность читать области Lead-in и Lead-out. Нет
    Заполнение пропущенных сэмплов тишиной. Да
    Удаление блоков с тишиной в начале и конце. Нет
    При вычислениях CRC использовались нулевые сэмплы. Нет
    Интерфейс. Встроенный Win32-интерфейс для Win NT/2000

    Выходной формат. Внутренние WAV-операции
    Формат сэмплов. 44.100 Гц; 16 бит; стерео

    TOC извлечённого CD

    Трек | Старт | Длительность | Начальный сектор | Конечный сектор
    ---------------------------------------------------------------------
    1 | 0:00.00 | 5:41.34 | 0 | 25608
    2 | 5:41.34 | 5:57.44 | 25609 | 52427
    3 | 11:39.03 | 4:04.73 | 52428 | 70800
    4 | 15:44.01 | 4:41.22 | 70801 | 91897
    5 | 20:25.23 | 5:17.72 | 91898 | 115744
    6 | 25:43.20 | 5:01.16 | 115745 | 138335
    7 | 30:44.36 | 3:58.33 | 138336 | 156218
    8 | 34:42.69 | 3:37.09 | 156219 | 172502
    9 | 38:20.03 | 3:09.22 | 172503 | 186699
    10 | 41:29.25 | 3:20.67 | 186700 | 201766

    Характеристики диапазона извлечения и сообщения об ошибках

    Имя файла G:\blabla\1\Unknown Artist - Unknown Title.wav

    Пиковый уровень 89.1 %
    CRC теста 45E357FB
    CRC копии 45E357FB
    Копирование завершено

    Ошибок не произошло

    Продолжительность 00:43:10
    01. Клофелин (1:39)
    02. Зомби (4:06)
    03. Больной (3:48)
    04. Калигула (4:14)
    05. Твари (3:10)
    06. Яд (3:30)
    07. Ура! (1:23)
    08. Шпалер (3:50)
    09. Черви (3:25)
    10. Газы (2:56)
    11. Уродина (4:31)
    12. Осень (2:27)
    13. Баллада (4:11)

    DON'T MODIFY THIS FILE

    PERFORMER: auCDtect Task Manager, ver. 1.5.1RC4 build 1.5.1.5
    Copyright (c) 2008-2010 y-soft. All rights reserved
    http://y-soft.org

    ANALYZER: auCDtect: CD records authenticity detector, version 0.8.2
    Copyright (c) 2004 Oleg Berngardt. All rights reserved.
    Copyright (c) 2004 Alexander Djourik. All rights reserved.

    FILE: Крематорий - Бесы В Моих Снах.flac
    Size: 88460799 Hash: F618C239F714D195803A10D2504F4752 Accuracy: -m0
    Conclusion: CDDA 100%
    Signature: F014A6B9BD10F1F34CF7F3B5D247E33C89364E5A

    Отчёт EAC об извлечении, выполненном 29. марта 2008, 8:30 для диска:
    Крематорий / Бесы В Моих Снах

    Дисковод: HL-DT-STDVD-RW GWA-4082N Adapter: 1 ID: 0
    Режим чтения: Достоверный (C2: нет, Точный поток: да, Отключение кэша: да)
    Коррекция смещения при чтении: 667
    Способность читать области Lead-in и Lead-out. Нет

    Выходной формат: Внутренние WAV-операции
    44.100 Гц; 16 бит; стерео

    Другие параметры:
    Заполнение пропущенных сэмплов тишиной. Да
    Удаление блоков с тишиной в начале и конце. Нет
    Встроенный Win32-интерфейс для Win NT/2000

    Характеристики диапазона извлечения и сообщения об ошибках
    Выбранный диапазон
    Имя файла D:\krematorium\Крематорий - Бесы В Моих Снах.wav

    Пиковый уровень 99.4 %
    Качество диапазона 100.0 %
    CRC 1CB24661
    Копирование. OK

    Ошибок не произошло

    Продолжительность 01:11:57
    01. Данте Алигьери(Одинокие пиплы) (3:55)
    02. Разбитое сердце (3:20)
    03. Сто лет прожитых зря (3:59)
    04. Окно (2:51)
    05. Миклуха (2:48)
    06. Прощай мое солнце(Гонцы за вином) (3:07)
    07. Белые столбы (3:26)
    08. Эпитафия (2:46)
    09. Палковводец Красс (1:08)
    10. Прощальные сны (3:37)
    11. Космос (5:04)
    12. Проходящие мимо (1:40)
    13. Америка (1:21)
    14. Хабибулин (1:32)
    15. Реанимационная машина (1:32)
    16. Гончие псы (2:43)
    17. Тридцать лет (0:44)
    18. Ты была той женщиной (1:32)
    19. Штраус (2:11)
    20. Харе Рама (2:58)
    21. Аутсайдер (2:56)
    22. Таня (3:18)
    23. Наше время (4:33)
    24. Безобразная Эльза (2:46)
    25. Маленькая девочка (2:16)
    26. Прощай, детка (2:04)
    27. Кондратий (1:49)

    DON'T MODIFY THIS FILE

    PERFORMER: auCDtect Task Manager, ver. 1.5.1RC4 build 1.5.1.5
    Copyright (c) 2008-2010 y-soft. All rights reserved
    http://y-soft.org

    ANALYZER: auCDtect: CD records authenticity detector, version 0.8.2
    Copyright (c) 2004 Oleg Berngardt. All rights reserved.
    Copyright (c) 2004 Alexander Djourik. All rights reserved.

    FILE: Крематорий - Концерт в Горбушке 1995.flac
    Size: 419787350 Hash: 28E9F0A2D6173C4042103E514269F1F8 Accuracy: -m0
    Conclusion: CDDA 100%
    Signature: BFDE7C7270D8650741B6043746A519B9027C180C

    Exact Audio Copy V0.99 prebeta 4 from 23. January 2008

    Отчёт EAC об извлечении, выполненном 12. апреля 2008, 03:15

    Крематорий / Концерт в Горбушке

    Дисковод: ASUS DRW-1814BLT Adapter: 1 ID: 0

    Режим чтения. Достоверность
    Использование точного потока. Да
    Отключение кэша аудио. Да
    Использование указателей C2. Нет

    Коррекция смещения при чтении. 6
    Способность читать области Lead-in и Lead-out. Нет
    Заполнение пропущенных сэмплов тишиной. Да
    Удаление блоков с тишиной в начале и конце. Нет
    При вычислениях CRC использовались нулевые сэмплы. Да
    Интерфейс. Установленный внешний ASPI-интерфейс

    Выходной формат. Внутренние WAV-операции
    Формат сэмплов. 44.100 Гц; 16 бит; стерео

    Характеристики диапазона извлечения и сообщения об ошибках

    Имя файла C:\tmp2\Крематорий - Концерт в Горбушке.wav

    Пиковый уровень 100 %
    Качество диапазона 100 %
    CRC копии 902C9CBA
    Копирование. OK

    Ошибок не произошло

    Продолжительность 00:45:20
    01. Данте Алигьери (Одинокие Пиплы) (3:54)
    02. Белые Столбы (3:19)
    03. Разбитое Сердце (2:30)
    04. Миклуха (2:55)
    05. Прощай Мое Солнце (Гонцы за Вином) (3:13)
    06. Эротические Монстры (3:19)
    07. Туда, Где Отдают Концы (2:16)
    08. Андромеда (1:14)
    09. Окно (2:42)
    10. Палковводец Красс (0:53)
    11. 100 лет, Прожитых Зря (3:50)
    12. Бесы В Моих Снах (2:37)
    13. Амба (3:21)
    14. Гаф-Гаф (2:55)
    15. Сине-розовый Марс (2:52)
    16. Прощальные Сны (3:30)

    DON'T MODIFY THIS FILE

    PERFORMER: auCDtect Task Manager, ver. 1.5.1RC4 build 1.5.1.5
    Copyright (c) 2008-2010 y-soft. All rights reserved
    http://y-soft.org

    ANALYZER: auCDtect: CD records authenticity detector, version 0.8.2
    Copyright (c) 2004 Oleg Berngardt. All rights reserved.
    Copyright (c) 2004 Alexander Djourik. All rights reserved.

    FILE: Крематорий - Текиловые Сны.flac
    Size: 266970709 Hash: 266FCCB481B606E1EE8A4745763238C3 Accuracy: -m0
    Conclusion: CDDA 100%
    Signature: 8427B0D340628DEFFC2884F055E65340D3A0602C

    Exact Audio Copy V0.99 prebeta 4 from 23. January 2008

    Отчёт EAC об извлечении, выполненном 8. июня 2008, 5:07

    Unknown Artist / Unknown Title

    Дисковод: PIONEER DVD-RW DVR-109 Adapter: 0 ID: 0

    Режим чтения. Достоверность
    Использование точного потока. Да
    Отключение кэша аудио. Да
    Использование указателей C2. Нет

    Коррекция смещения при чтении. 48
    Способность читать области Lead-in и Lead-out. Нет
    Заполнение пропущенных сэмплов тишиной. Да
    Удаление блоков с тишиной в начале и конце. Нет
    При вычислениях CRC использовались нулевые сэмплы. Нет
    Интерфейс. Встроенный Win32-интерфейс для Win NT/2000

    Выходной формат. Внутренние WAV-операции
    Формат сэмплов. 44.100 Гц; 16 бит; стерео

    TOC извлечённого CD

    Трек | Старт | Длительность | Начальный сектор | Конечный сектор
    ---------------------------------------------------------------------
    1 | 0:00.00 | 3:53.45 | 0 | 17519
    2 | 3:53.45 | 3:19.32 | 17520 | 32476
    3 | 7:13.02 | 2:29.40 | 32477 | 43691
    4 | 9:42.42 | 2:54.48 | 43692 | 56789
    5 | 12:37.15 | 3:13.25 | 56790 | 71289
    6 | 15:50.40 | 3:18.57 | 71290 | 86196
    7 | 19:09.22 | 2:15.73 | 86197 | 96394
    8 | 21:25.20 | 1:13.47 | 96395 | 101916
    9 | 22:38.67 | 2:42.35 | 101917 | 114101
    10 | 25:21.27 | 0:52.50 | 114102 | 118051
    11 | 26:14.02 | 3:50.28 | 118052 | 135329
    12 | 30:04.30 | 2:37.02 | 135330 | 147106
    13 | 32:41.32 | 3:21.23 | 147107 | 162204
    14 | 36:02.55 | 2:55.27 | 162205 | 175356
    15 | 38:58.07 | 2:51.43 | 175357 | 188224
    16 | 41:49.50 | 3:30.27 | 188225 | 204001

    Характеристики диапазона извлечения и сообщения об ошибках

    Имя файла G:\blabla\5\Unknown Artist - Unknown Title.wav

    Пиковый уровень 100.0 %
    CRC теста 160B0CFF
    CRC копии 160B0CFF
    Копирование завершено

    Ошибок не произошло

    Продолжительность 00:38:53
    01. Пиноккио (4:22)
    02. Китай-город (2:22)
    03. Мата Хари Блюз (5:42)
    04. Песня о ней (3:14)
    05. Virus C (1:46)
    06. 2001 год (3:35)
    07. Грета Гарбо (3:26)
    08. Лунный всадник (1:31)
    09. Яд (3:30)
    10. Ала Маона (1:05)
    11. Эпитафия (2:37)
    12. Гигантомания (5:04)
    13. Virus A repeat (0:36)

    DON'T MODIFY THIS FILE

    PERFORMER: auCDtect Task Manager, ver. 1.5.1RC4 build 1.5.1.5
    Copyright (c) 2008-2010 y-soft. All rights reserved
    http://y-soft.org

    ANALYZER: auCDtect: CD records authenticity detector, version 0.8.2
    Copyright (c) 2004 Oleg Berngardt. All rights reserved.
    Copyright (c) 2004 Alexander Djourik. All rights reserved.

    FILE: Крематорий - Гигантомания.flac
    Size: 230076313 Hash: A36F0705701B157C6A94DEC732D70F94 Accuracy: -m0
    Conclusion: CDDA 100%
    Signature: 342D20AF9B8866D0AEFC7B5B44BC7D222B9975A2

    Отчёт EAC об извлечении, выполненном 2. апреля 2008, 23:53 для диска:
    Крематорий / Гигантомания

    Дисковод: HL-DT-STDVD-RW GWA-4082N Adapter: 1 ID: 0
    Режим чтения: Достоверный (C2: нет, Точный поток: да, Отключение кэша: да)
    Коррекция смещения при чтении: 667
    Способность читать области Lead-in и Lead-out. Нет

    Выходной формат: Внутренние WAV-операции
    44.100 Гц; 16 бит; стерео

    Другие параметры:
    Заполнение пропущенных сэмплов тишиной. Да
    Удаление блоков с тишиной в начале и конце. Нет
    Встроенный Win32-интерфейс для Win NT/2000

    Характеристики диапазона извлечения и сообщения об ошибках
    Выбранный диапазон
    Имя файла D:\crematorium\Крематорий - Гигантомания\Крематорий - Гигантомания.wav

    Пиковый уровень 85.1 %
    Качество диапазона 100.0 %
    CRC 9E337B91
    Копирование. OK

    Ошибок не произошло

    Продолжительность 00:38:40
    01. Пиноккио (4:21)
    02. Китай-город (2:22)
    03. Мата Хари Блюз (5:41)
    04. Песня о ней (3:13)
    05. Virus C (1:45)
    06. 2001 год (3:35)
    07. Грета Гарбо (3:25)
    08. Лунный всадник (1:30)
    09. Яд (3:30)
    10. Ала Маона (1:05)
    11. Эпитафия (2:37)
    12. Гигантомания (5:01)
    13. Virus A repeat (0:35)

    DON'T MODIFY THIS FILE

    PERFORMER: auCDtect Task Manager, ver. 1.5.1RC4 build 1.5.1.5
    Copyright (c) 2008-2010 y-soft. All rights reserved
    http://y-soft.org

    ANALYZER: auCDtect: CD records authenticity detector, version 0.8.2
    Copyright (c) 2004 Oleg Berngardt. All rights reserved.
    Copyright (c) 2004 Alexander Djourik. All rights reserved.

    FILE: Крематорий - Гигантомания.flac
    Size: 243688533 Hash: B6D4BEECA89E1E76BCA80ADEDB75688B Accuracy: -m0
    Conclusion: CDDA 100%
    Signature: 9318670F0DEE5F429591F722636CA1A0709D2D77

    Exact Audio Copy V0.99 prebeta 4 from 23. January 2008

    Отчёт EAC об извлечении, выполненном 13. апреля 2008, 16:57

    Дисковод: ASUS DRW-1814BLT Adapter: 1 ID: 0

    Режим чтения. Достоверность
    Использование точного потока. Да
    Отключение кэша аудио. Да
    Использование указателей C2. Нет

    Коррекция смещения при чтении. 6
    Способность читать области Lead-in и Lead-out. Нет
    Заполнение пропущенных сэмплов тишиной. Да
    Удаление блоков с тишиной в начале и конце. Нет
    При вычислениях CRC использовались нулевые сэмплы. Да
    Интерфейс. Установленный внешний ASPI-интерфейс

    Выходной формат. Внутренние WAV-операции
    Формат сэмплов. 44.100 Гц; 16 бит; стерео

    Характеристики диапазона извлечения и сообщения об ошибках

    Имя файла C:\tmp2\Крематорий - Гигантомания.wav

    Пиковый уровень 89.1 %
    Качество диапазона 99.9 %
    CRC копии 20807736
    Копирование. OK

    Ошибок не произошло

    Продолжительность 01:13:10
    01. Белые столбы (3:17)
    02. Лепрозорий (4:09)
    03. Маленькая девочка (2:11)
    04. Твари (3:16)
    05. Таня (4:02)
    06. Бомба (2:26)
    07. Sexy Cat (2:18)
    08. Зомби (4:08)
    09. Разбитое сердце (2:25)
    10. Крематорий (1:23)
    11. Палковводец Красс (0:50)
    12. Калигула (4:10)
    13. Hare Rama (3:25)
    14. Хабибулин (3:26)
    15. Кондратий (1:18)
    16. Павлик Морозов (5:06)
    17. Последний шанс (Собачка) (3:33)
    18. Брат во Христе (3:27)
    19. Мусорный ветер (2:52)
    20. Аутсайдер (2:58)
    21. Стремный корабль (1:26)
    22. Безобразная Эльза (2:55)
    23. Клубника со льдом (3:00)
    24. Ура! (1:23)
    25. Сто лет, прожитых зря (3:47)

    DON'T MODIFY THIS FILE

    PERFORMER: auCDtect Task Manager, ver. 1.5.1RC4 build 1.5.1.5
    Copyright (c) 2008-2010 y-soft. All rights reserved
    http://y-soft.org

    ANALYZER: auCDtect: CD records authenticity detector, version 0.8.2
    Copyright (c) 2004 Oleg Berngardt. All rights reserved.
    Copyright (c) 2004 Alexander Djourik. All rights reserved.

    FILE: Крематорий - Легенды русского рока.flac
    Size: 452590066 Hash: 54C10F0A9CAE1A7CEE06DB8F13E9DA60 Accuracy: -m0
    Conclusion: CDDA 99%
    Signature: 2635C9D06DD8D6A64D5326EBAA11B156E05F5C11

    EAC extraction logfile from 1. August 2007, 22:18 for CD
    Крематорий / Легенды русского рока

    Used drive. _NEC DVD_RW ND-3550A Adapter: 1 ID: 0
    Read mode. Secure with NO C2, accurate stream, disable cache
    Read offset correction. 48
    Overread into Lead-In and Lead-Out. No

    Used output format. Internal WAV Routines
    44.100 Hz; 16 Bit; Stereo

    Other options :
    Fill up missing offset samples with silence. Yes
    Delete leading and trailing silent blocks. No
    Installed external ASPI interface

    Range status and errors
    Selected range
    Filename E:\!tracker\Krematoriy-1996-Legendy_Russkogo_Roka\Krematoriy - Legendy Russkogo Roka.wav

    Peak level 89.1 %
    Range quality 100.0 %
    CRC 30BBB460
    Copy OK

    No errors occured

    End of status report

    Продолжительность 00:39:48
    01. Virus A (0:22)
    02. Добро пожаловать в лето (2:14)
    03. Притча о цветных губах (0:59)
    04. Дискотека на улице Морг (0:44)
    05. Ангел (1:37)
    06. Три гиены (3:03)
    07. Женская песня (1:22)
    08. Бандерлоги (2:11)
    09. Песня старого хипа (0:34)
    10. Блюз-minuet (2:05)
    11. Ура! (1:42)
    12. Штраус (2:14)
    13. Вся моя жизнь (2:13)
    14. 30 лет (0:52)
    15. Бегство (Конь) (1:01)
    16. Зеркальня ода (Ниагара) (2:14)
    17. Сон (0:28)
    18. Палома-попс (2:27)
    19. Старушка Занзибар (1:29)
    20. Virus B (0:58)
    21. ОНСБ (1:25)
    22. Микронезия (2:06)
    23. Палковводец Красс (1:04)
    24. Призрак Пиноккио (4:23)

    DON'T MODIFY THIS FILE

    PERFORMER: auCDtect Task Manager, ver. 1.5.1RC4 build 1.5.1.5
    Copyright (c) 2008-2010 y-soft. All rights reserved
    http://y-soft.org

    ANALYZER: auCDtect: CD records authenticity detector, version 0.8.2
    Copyright (c) 2004 Oleg Berngardt. All rights reserved.
    Copyright (c) 2004 Alexander Djourik. All rights reserved.

    FILE: Крематорий - Микронезия.flac
    Size: 225594757 Hash: B0B94A4F938505183E22F5487144481D Accuracy: -m0
    Conclusion: CDDA 99%
    Signature: 57D5F07ED5465310055D48741A01F103917776DC

    Отчёт EAC об извлечении, выполненном 2. апреля 2008, 23:41 для диска:
    Крематорий / Микронезия

    Дисковод: HL-DT-STDVD-RW GWA-4082N Adapter: 1 ID: 0
    Режим чтения: Достоверный (C2: нет, Точный поток: да, Отключение кэша: да)
    Коррекция смещения при чтении: 667
    Способность читать области Lead-in и Lead-out. Нет

    Выходной формат: Внутренние WAV-операции
    44.100 Гц; 16 бит; стерео

    Другие параметры:
    Заполнение пропущенных сэмплов тишиной. Да
    Удаление блоков с тишиной в начале и конце. Нет
    Встроенный Win32-интерфейс для Win NT/2000

    Характеристики диапазона извлечения и сообщения об ошибках
    Выбранный диапазон
    Имя файла D:\crematorium\Крематорий - Микронезия\Крематорий - Микронезия.wav

    Пиковый уровень 92.6 %
    Качество диапазона 100.0 %
    CRC 1EF4D580
    Копирование. OK

    Ошибок не произошло

    Продолжительность 00:40:03
    01. Virus A (0:22)
    02. Добро пожаловать в лето (2:15)
    03. Притча о цветных губах (0:59)
    04. Дискотека на улице Морг (0:45)
    05. Ангел (1:38)
    06. Три гиены (3:03)
    07. Женская песня (1:23)
    08. Бандерлоги (2:11)
    09. Песня старого хипа (0:35)
    10. Блюз-minuet (2:07)
    11. Ура! (1:42)
    12. Штраус (2:15)
    13. Вся моя жизнь (2:14)
    14. 30 лет (0:53)
    15. Бегство (Конь) (1:02)
    16. Зеркальня ода (Ниагара) (2:15)
    17. Сон (0:29)
    18. Палома-попс (2:27)
    19. Старушка Занзибар (1:30)
    20. Virus B (0:59)
    21. ОНСБ (1:25)
    22. Микронезия (2:07)
    23. Палковводец Красс (1:05)
    24. Призрак Пиноккио (4:22)

    DON'T MODIFY THIS FILE

    PERFORMER: auCDtect Task Manager, ver. 1.5.1RC4 build 1.5.1.5
    Copyright (c) 2008-2010 y-soft. All rights reserved
    http://y-soft.org

    ANALYZER: auCDtect: CD records authenticity detector, version 0.8.2
    Copyright (c) 2004 Oleg Berngardt. All rights reserved.
    Copyright (c) 2004 Alexander Djourik. All rights reserved.

    FILE: Крематорий - Микронезия.flac
    Size: 238393957 Hash: F8336CEBB0A846282334617227AD1E94 Accuracy: -m0
    Conclusion: CDDA 100%
    Signature: 0BA5611B02181834DA220DE4C5EB7D984CBB15EB

    Exact Audio Copy V0.99 prebeta 4 from 23. January 2008

    Отчёт EAC об извлечении, выполненном 14. апреля 2008, 06:25

    Дисковод: ASUS DRW-1814BLT Adapter: 1 ID: 0

    Режим чтения. Достоверность
    Использование точного потока. Да
    Отключение кэша аудио. Да
    Использование указателей C2. Нет

    Коррекция смещения при чтении. 6
    Способность читать области Lead-in и Lead-out. Нет
    Заполнение пропущенных сэмплов тишиной. Да
    Удаление блоков с тишиной в начале и конце. Нет
    При вычислениях CRC использовались нулевые сэмплы. Да
    Интерфейс. Установленный внешний ASPI-интерфейс

    Выходной формат. Внутренние WAV-операции
    Формат сэмплов. 44.100 Гц; 16 бит; стерео

    Характеристики диапазона извлечения и сообщения об ошибках

    Имя файла C:\tmp2\Крематорий - Микронезия.wav

    Пиковый уровень 100 %
    Качество диапазона 100 %
    CRC копии 17D827F5
    Копирование. OK

    Ошибок не произошло

    Продолжительность 00:44:01
    01. Пора смываться (3:26)
    02. Смерти больше нет (5:26)
    03. Метла (3:47)
    04. Дом ''Голубые глаза'' (2:37)
    05. Ботаника (3:52)
    06. В доме на улице Смольной (3:00)
    07. Танец маленьких свиней (3:24)
    08. Мой генерал (3:17)
    09. Фамильный вампир (4:44)
    10. Лучшие времена (4:07)
    11. Сон ни о чем (3:24)
    12. Без крыльев, как дым (2:59)

    DON'T MODIFY THIS FILE

    PERFORMER: auCDtect Task Manager, ver. 1.5.1RC4 build 1.5.1.5
    Copyright (c) 2008-2010 y-soft. All rights reserved
    http://y-soft.org

    ANALYZER: auCDtect: CD records authenticity detector, version 0.8.2
    Copyright (c) 2004 Oleg Berngardt. All rights reserved.
    Copyright (c) 2004 Alexander Djourik. All rights reserved.

    FILE: Крематорий - Ботаника.flac
    Size: 258479839 Hash: 4AC1984D8A0536FDFE8ADEB8D3621B62 Accuracy: -m0
    Conclusion: CDDA 100%
    Signature: C37C938A3AE4C640AC59FDF9B34732771EB57F7C

    Exact Audio Copy V0.99 prebeta 4 from 23. January 2008

    Отчёт EAC об извлечении, выполненном 13. апреля 2008, 8:54

    Дисковод: ASUS DRW-1814BLT Adapter: 1 ID: 0

    Режим чтения. Достоверность
    Использование точного потока. Да
    Отключение кэша аудио. Да
    Использование указателей C2. Нет

    Коррекция смещения при чтении. 6
    Способность читать области Lead-in и Lead-out. Нет
    Заполнение пропущенных сэмплов тишиной. Да
    Удаление блоков с тишиной в начале и конце. Нет
    При вычислениях CRC использовались нулевые сэмплы. Да
    Интерфейс. Установленный внешний ASPI-интерфейс

    Выходной формат. Внутренние WAV-операции
    Формат сэмплов. 44.100 Гц; 16 бит; стерео

    Характеристики диапазона извлечения и сообщения об ошибках

    Имя файла C:\tmp2\Крематорий - Ботаника.wav

    Пиковый уровень 94.7 %
    Качество диапазона 100 %
    CRC копии AF4BA0EE
    Копирование. OK

    Ошибок не произошло

    Продолжительность 00:52:46
    01. Таня (4:28)
    02. Крематорий (2:03)
    03. Крылатые Слоны (3:41)
    04. Хабибулин (3:32)
    05. Кондратий (1:24)
    06. Лепрозорий (4:09)
    07. Кокаин (3:41)
    08. Аутсайдер (3:06)
    09. Sexy-Cat (2:18)
    10. Моя Деревня (Хит-парид 88) (2:33)
    11. Себастия (2:42)
    12. Моя Соседка (2:42)
    13. Безобразная Эльза (2:58)
    14. Старый Стритовый Пипл (Песня старого хипа) (0:36)
    15. Мусорный Ветер (2:52)
    16. Дым и Пепел (4:15)
    17. The Night (5:45)

    DON'T MODIFY THIS FILE

    PERFORMER: auCDtect Task Manager, ver. 1.5.1RC4 build 1.5.1.5
    Copyright (c) 2008-2010 y-soft. All rights reserved
    http://y-soft.org

    ANALYZER: auCDtect: CD records authenticity detector, version 0.8.2
    Copyright (c) 2004 Oleg Berngardt. All rights reserved.
    Copyright (c) 2004 Alexander Djourik. All rights reserved.

    FILE: Крематорий - Трилогия часть первая (1983-88).flac
    Size: 340647994 Hash: CAA3B319AEF45E104CD3F498C7AA2477 Accuracy: -m0
    Conclusion: CDDA 100%
    Signature: 807F2CB0A5F7AD611132FBC8E89FF6B5E83ECC26

    Отчёт EAC об извлечении, выполненном 5. апреля 2008, 19:43 для диска:
    Крематорий / Трилогия часть первая 1983-88

    Дисковод: HL-DT-STDVD-RW GWA-4082N Adapter: 1 ID: 0
    Режим чтения: Достоверный (C2: нет, Точный поток: да, Отключение кэша: да)
    Коррекция смещения при чтении: 667
    Способность читать области Lead-in и Lead-out. Нет

    Выходной формат: Внутренние WAV-операции
    44.100 Гц; 16 бит; стерео

    Другие параметры:
    Заполнение пропущенных сэмплов тишиной. Да
    Удаление блоков с тишиной в начале и конце. Нет
    Встроенный Win32-интерфейс для Win NT/2000

    Характеристики диапазона извлечения и сообщения об ошибках
    Выбранный диапазон
    Имя файла D:\crematorium\Крематорий - Трилогия часть первая 1983-88\Крематорий - Трилогия часть первая 1983-88.wav

    Пиковый уровень 89.1 %
    Качество диапазона 99.9 %
    CRC BE67F6FD
    Копирование. OK

    Ошибок не произошло

    Продолжительность 01:02:53
    01. Шпалер (4:11)
    02. Твари (3:10)
    03. Реанимационная машина (3:52)
    04. Адольф (2:50)
    05. Зомби (4:10)
    06. Маленькая девочка (Live) (2:26)
    07. Мир, полный любви (4:35)
    08. Калигула (4:15)
    09. Женщины города Роз (6:06)
    10. Собачий вальс (3:54)
    11. Космос (Архип Архипыч) (4:37)
    12. Полтергейст (3:26)
    13. Собачка (Последний шанс) (3:34)
    14. Клубника со льдом (2:15)
    15. Фрау Фон Либерзон (2:30)
    16. Уродина (4:30)
    17. Концерт для оркестра с трубой (2:33)

    DON'T MODIFY THIS FILE

    PERFORMER: auCDtect Task Manager, ver. 1.5.1RC4 build 1.5.1.5
    Copyright (c) 2008-2010 y-soft. All rights reserved
    http://y-soft.org

    ANALYZER: auCDtect: CD records authenticity detector, version 0.8.2
    Copyright (c) 2004 Oleg Berngardt. All rights reserved.
    Copyright (c) 2004 Alexander Djourik. All rights reserved.

    FILE: Крематорий - Трилогия, часть 2.flac
    Size: 473464913 Hash: 45FD019AEEA483FED574FD4A50EF45C6 Accuracy: -m0
    Conclusion: CDDA 100%
    Signature: 13B639AEE131D564F27C1526835EC6A79914209F

    EAC extraction logfile from 30. June 2007, 13:18 for CD
    Крематорий / Трилогия, часть 2

    Used drive. HL-DT-STRW/DVD GCC-4241N Adapter: 1 ID: 0
    Read mode. Secure with NO C2, accurate stream, disable cache
    Read offset correction. 102
    Overread into Lead-In and Lead-Out. No

    Used output format. Internal WAV Routines
    44.100 Hz; 16 Bit; Stereo

    Other options :
    Fill up missing offset samples with silence. Yes
    Delete leading and trailing silent blocks. No
    Installed external ASPI interface

    Range status and errors
    Selected range
    Filename C:\Documents and Settings\7eva\Desktop\Крематорий\Трилогия\Трилогия ч.2 (1988-1993)\Крематорий - Трилогия, часть 2.wav

    Peak level 96.7 %
    Range quality 100.0 %
    CRC F8CEB282
    Copy OK

    No errors occured

    End of status report

    Продолжительность 00:51:42
    01. Mr. Тайсон (3:47)
    02. Звероящер (3:14)
    03. Катманду (4:03)
    04. 2001 Год (3:34)
    05. Мата Хари Блюз (5:40)
    06. Ниагара (2:13)
    07. Дискотека На Улице Морг (0:44)
    08. Яд (3:29)
    09. Палковводец Красс (Live) (1:12)
    10. Три гиены (3:03)
    11. Брат Во Христе (3:27)
    12. Добро пожаловать в Лето (Песня русского 'моржа') (2:14)
    13. Палома-попс (2:25)
    14. Штраус Иоганн (2:14)
    15. Белые Столбы (Live) (3:29)
    16. Пиноккио (4:20)
    17. Эпитафия (2:35)

    DON'T MODIFY THIS FILE

    PERFORMER: auCDtect Task Manager, ver. 1.5.1RC4 build 1.5.1.5
    Copyright (c) 2008-2010 y-soft. All rights reserved
    http://y-soft.org

    ANALYZER: auCDtect: CD records authenticity detector, version 0.8.2
    Copyright (c) 2004 Oleg Berngardt. All rights reserved.
    Copyright (c) 2004 Alexander Djourik. All rights reserved.

    FILE: Крематорий - Трилогия. Часть третья.flac
    Size: 368479951 Hash: A8C0BC7553A9622F8B012EBD6C88BA9A Accuracy: -m0
    Conclusion: CDDA 100%
    Signature: C2A26E2496D1C8319721B71D174173666B23DB1A

    EAC extraction logfile from 30. June 2007, 15:16 for CD
    Крематорий / Трилогия. Часть третья

    Used drive. HL-DT-STRW/DVD GCC-4241N Adapter: 1 ID: 0
    Read mode. Secure with NO C2, accurate stream, disable cache
    Combined read/write offset correction. 0
    Overread into Lead-In and Lead-Out. No

    Used output format. Internal WAV Routines
    44.100 Hz; 16 Bit; Stereo

    Other options :
    Fill up missing offset samples with silence. Yes
    Delete leading and trailing silent blocks. No
    Installed external ASPI interface

    Range status and errors
    Selected range
    Filename C:\Documents and Settings\7eva\Desktop\Крематорий\Трилогия\Трилогия ч.3 (1993-1998)\Крематорий - Трилогия. Часть третья.wav

    Peak level 100.0 %
    Range quality 99.9 %
    CRC 1A42FA87
    Copy OK

    No errors occured

    End of status report

    Продолжительность 00:36:15
    01. Дым и пепел (4:17)
    02. The Night (5:47)
    03. Крылатые слоны (3:43)
    04. Моя соседка (2:44)
    05. Полтергейст (3:28)
    06. Фрау фон Либензон (2:32)
    07. Концерт для оркестра с трубой (2:35)
    08. Мистер Тайсон (3:49)
    09. Звероящер (3:16)
    10. Катманду (4:03)

    DON'T MODIFY THIS FILE

    PERFORMER: auCDtect Task Manager, ver. 1.5.1RC4 build 1.5.1.5
    Copyright (c) 2008-2010 y-soft. All rights reserved
    http://y-soft.org

    ANALYZER: auCDtect: CD records authenticity detector, version 0.8.2
    Copyright (c) 2004 Oleg Berngardt. All rights reserved.
    Copyright (c) 2004 Alexander Djourik. All rights reserved.

    FILE: Крематорий - Неизданное.flac
    Size: 241097584 Hash: FE942F9BF51BFD35D66F1C532768410C Accuracy: -m0
    Conclusion: CDDA 99%
    Signature: DCB3139031A1DA588D8B70D3668E50A4355BEACF

    Отчёт EAC об извлечении, выполненном 19. июля 2007, 18:19 для диска:
    Unknown Artist / Unknown Title

    Дисковод: SONY DVD-ROM DDU1621 Adapter: 1 ID: 1
    Режим чтения: Достоверный (C2: нет, Точный поток: да, Отключение кэша: да)
    Коррекция смещения при чтении: 12
    Способность читать области Lead-in и Lead-out. Нет

    Выходной формат: Внутренние WAV-операции
    44.100 Гц; 16 бит; стерео

    Другие параметры:
    Заполнение пропущенных сэмплов тишиной. Да
    Удаление блоков с тишиной в начале и конце. Нет
    Встроенный Win32-интерфейс для Win NT/2000

    Характеристики диапазона извлечения и сообщения об ошибках
    Выбранный диапазон
    Имя файла F:\krematory.wav

    Пиковый уровень 89.1 %
    Качество диапазона 100.0 %
    CRC AD736E83
    Копирование. OK

    Ошибок не произошло

    Продолжительность 00:56:30
    01. 2001 Год (3:43)
    02. Катманду (4:01)
    03. Бадихойли (3:42)
    04. Убежище (4:04)
    05. Маленькая Девочка (2:11)
    06. Зебры (3:47)
    07. Клубника Со Льдом (2:15)
    08. Яд (3:29)
    09. Геена Огненная (3:55)
    10. Крематорий (2:03)
    11. Таня (4:28)
    12. Дом 'Голубые Глаза' (2:37)
    13. Брат Во Христе (3:27)
    14. Кондратий (1:17)
    15. Хабибулин (3:24)
    16. Безобразная Эльза (2:58)
    17. Сексуальная Кошка (2:18)
    18. Мусорный Ветер (2:50)

    DON'T MODIFY THIS FILE

    PERFORMER: auCDtect Task Manager, ver. 1.5.1RC4 build 1.5.1.5
    Copyright (c) 2008-2010 y-soft. All rights reserved
    http://y-soft.org

    ANALYZER: auCDtect: CD records authenticity detector, version 0.8.2
    Copyright (c) 2004 Oleg Berngardt. All rights reserved.
    Copyright (c) 2004 Alexander Djourik. All rights reserved.

    FILE: Крематорий - Fan-Tom.flac
    Size: 383294777 Hash: 791DE8325B1CDE68403941ABF2FBC594 Accuracy: -m0
    Conclusion: CDDA 100%
    Signature: 17E069D9BA232AB5F21CC72BF39A2DF2C6CA0A40

    Exact Audio Copy V0.99 prebeta 4 from 23. January 2008

    Отчёт EAC об извлечении, выполненном 11. апреля 2008, 12:07

    Дисковод: ASUS DRW-1814BLT Adapter: 1 ID: 0

    Режим чтения. Достоверность
    Использование точного потока. Да
    Отключение кэша аудио. Да
    Использование указателей C2. Нет

    Коррекция смещения при чтении. 6
    Способность читать области Lead-in и Lead-out. Нет
    Заполнение пропущенных сэмплов тишиной. Да
    Удаление блоков с тишиной в начале и конце. Нет
    При вычислениях CRC использовались нулевые сэмплы. Да
    Интерфейс. Установленный внешний ASPI-интерфейс

    Выходной формат. Внутренние WAV-операции
    Формат сэмплов. 44.100 Гц; 16 бит; стерео

    Характеристики диапазона извлечения и сообщения об ошибках

    Имя файла C:\tmp2\Крематорий - Fan-Tom.wav

    Пиковый уровень 100 %
    Качество диапазона 99.9 %
    CRC копии 88261D04
    Копирование. OK

    Ошибок не произошло

    Продолжительность 00:52:51
    01. Геена огненная (3:55)
    02. Три источника (3:19)
    03. Убежище (4:04)
    04. Каины-дизаины (2:47)
    05. Кот (сублимация) (4:07)
    06. Мсье Серж (3:43)
    07. Лето (3:00)
    08. Зебры (3:49)
    09. Катманду (4:01)
    10. Ева (герой ежедневной войны) (4:00)
    11. Африканка (трансконтинентальный sex) (4:26)
    12. Звероящер (3:06)
    13. Римский блюз (4:51)
    14. 2001 год (remake) bonus track (3:42)

    DON'T MODIFY THIS FILE

    PERFORMER: auCDtect Task Manager, ver. 1.5.1RC4 build 1.5.1.5
    Copyright (c) 2008-2010 y-soft. All rights reserved
    http://y-soft.org

    ANALYZER: auCDtect: CD records authenticity detector, version 0.8.2
    Copyright (c) 2004 Oleg Berngardt. All rights reserved.
    Copyright (c) 2004 Alexander Djourik. All rights reserved.

    FILE: Крематорий - Три источника.flac
    Size: 381030285 Hash: C688D0149AAB7AEF177D03168D3E9BE0 Accuracy: -m0
    Conclusion: CDDA 100%
    Signature: 874702F9AFB7DFFF315683EDEFD38699FCEAB4CD

    Exact Audio Copy V0.99 prebeta 4 from 23. January 2008

    Отчёт EAC об извлечении, выполненном 10. апреля 2008, 19:56

    Крематорий / Три источника

    Дисковод: ASUS DRW-1814BLT Adapter: 1 ID: 0

    Режим чтения. Достоверность
    Использование точного потока. Да
    Отключение кэша аудио. Да
    Использование указателей C2. Нет

    Коррекция смещения при чтении. 6
    Способность читать области Lead-in и Lead-out. Нет
    Заполнение пропущенных сэмплов тишиной. Да
    Удаление блоков с тишиной в начале и конце. Нет
    При вычислениях CRC использовались нулевые сэмплы. Да
    Интерфейс. Установленный внешний ASPI-интерфейс

    Выходной формат. Внутренние WAV-операции
    Формат сэмплов. 44.100 Гц; 16 бит; стерео

    Характеристики диапазона извлечения и сообщения об ошибках

    Имя файла C:\tmp2\Крематорий - Три источника.wav

    Пиковый уровень 100 %
    Качество диапазона 100 %
    CRC копии 642835A0
    Копирование. OK

    Ошибок не произошло

    Продолжительность 01:18:53
    01. Мусорный ветер (2:52)
    02. Безобразная Эльза (2:58)
    03. Кондратий (1:16)
    04. Крематорий (2:03)
    05. Сексуальная кошка (2:18)
    06. Таня (4:28)
    07. Маленькая девочка (2:24)
    08. Женщины города Роз (6:05)
    09. Клубника со льдом (2:15)
    10. Твари (3:10)
    11. Уродина (4:30)
    12. Яд (3:29)
    13. 2001 год (3:34)
    14. Катманду (4:02)
    15. Mr. Тайсон (3:46)
    16. Штраус Иоганн (2:14)
    17. Эпитафия (2:37)
    18. Брат во Христе (3:26)
    19. Ботаника (3:52)
    20. Дом 'Голубые глаза' (2:37)
    21. Бадихойли (3:42)
    22. Убежище (4:04)
    23. Геена огненная (3:55)
    24. Три источника (3:17)

    DON'T MODIFY THIS FILE

    PERFORMER: auCDtect Task Manager, ver. 1.5.1RC4 build 1.5.1.5
    Copyright (c) 2008-2010 y-soft. All rights reserved
    http://y-soft.org

    ANALYZER: auCDtect: CD records authenticity detector, version 0.8.2
    Copyright (c) 2004 Oleg Berngardt. All rights reserved.
    Copyright (c) 2004 Alexander Djourik. All rights reserved.

    FILE: Крематорий - Большая Российская Музыкальная Энциклопедия.flac
    Size: 575813310 Hash: E39CD6136E02AE07C6F8BEB75513B674 Accuracy: -m0
    Conclusion: CDDA 100%
    Signature: 0CD1F4229671303B4D5F85D1F33D5221158A61E4

    Exact Audio Copy V0.99 prebeta 3 from 28. July 2007

    Отчёт EAC об извлечении, выполненном 25. сентября 2007, 11:21

    Крематорий / Большая Российская Музыкальная Энциклопедия

    Дисковод: _NEC DVD_RW ND-3520AW Adapter: 1 ID: 2

    Режим чтения. Достоверность
    Использование точного потока. Да
    Отключение кэша аудио. Да
    Использование указателей C2. Нет

    Коррекция смещения при чтении. 48
    Способность читать области Lead-in и Lead-out. Нет
    Заполнение пропущенных сэмплов тишиной. Да
    Удаление блоков с тишиной в начале и конце. Нет
    При вычислениях CRC использовались нулевые сэмплы. Да
    Интерфейс. Встроенный Win32-интерфейс для Win NT/2000

    Выходной формат. Внутренние WAV-операции
    Формат сэмплов. 44.100 Гц; 16 бит; стерео

    TOC извлечённого CD

    Трек | Старт | Длительность | Начальный сектор | Конечный сектор
    ---------------------------------------------------------------------
    1 | 0:00.00 | 2:51.61 | 0 | 12885
    2 | 2:51.61 | 2:58.26 | 12886 | 26261
    3 | 5:50.12 | 1:15.73 | 26262 | 31959
    4 | 7:06.10 | 2:02.42 | 31960 | 41151
    5 | 9:08.52 | 2:18.02 | 41152 | 51503
    6 | 11:26.54 | 4:28.24 | 51504 | 71627
    7 | 15:55.03 | 2:23.71 | 71628 | 82423
    8 | 18:18.74 | 6:05.15 | 82424 | 109813
    9 | 24:24.14 | 2:14.43 | 109814 | 119906
    10 | 26:38.57 | 3:09.47 | 119907 | 134128
    11 | 29:48.29 | 4:29.66 | 134129 | 154369
    12 | 34:18.20 | 3:28.45 | 154370 | 170014
    13 | 37:46.65 | 3:33.53 | 170015 | 186042
    14 | 41:20.43 | 4:02.19 | 186043 | 204211
    15 | 45:22.62 | 3:46.07 | 204212 | 221168
    16 | 49:08.69 | 2:13.38 | 221169 | 231181
    17 | 51:22.32 | 2:36.67 | 231182 | 242948
    18 | 53:59.24 | 3:25.70 | 242949 | 258393
    19 | 57:25.19 | 3:51.52 | 258394 | 275770
    20 | 61:16.71 | 2:37.27 | 275771 | 287572
    21 | 63:54.23 | 3:42.02 | 287573 | 304224
    22 | 67:36.25 | 4:04.04 | 304225 | 322528
    23 | 71:40.29 | 3:55.25 | 322529 | 340178
    24 | 75:35.54 | 3:17.34 | 340179 | 354987

    Характеристики диапазона извлечения и сообщения об ошибках

    Имя файла E:\Music Lossless\Крематорий - Большая Российская Музыкальная Энциклопедия (2002)\Крематорий - Большая Российская Музыкальная Энциклопедия.wav

    Пиковый уровень 99.9 %
    Качество диапазона 99.9 %
    CRC теста FA54BD6D
    CRC копии FA54BD6D
    Копирование. OK

    Ошибок не произошло

    Продолжительность 00:45:16
    01. Реквием для Всадника без головы (4:59)
    02. Ножки иксиком (3:07)
    03. Вера (3:03)
    04. Дым и пепел (4:18)
    05. Проклятая жизнь (3:29)
    06. Яма (3:30)
    07. Фрау фон Либерзон (2:33)
    08. Полтергейст (3:30)
    09. Параноид и Психея (3:47)
    10. Концерт для оркестра с трубой (2:47)
    11. Night (5:42)
    12. Bonus (4:32)

    DON'T MODIFY THIS FILE

    PERFORMER: auCDtect Task Manager, ver. 1.5.1RC4 build 1.5.1.5
    Copyright (c) 2008-2010 y-soft. All rights reserved
    http://y-soft.org

    ANALYZER: auCDtect: CD records authenticity detector, version 0.8.2
    Copyright (c) 2004 Oleg Berngardt. All rights reserved.
    Copyright (c) 2004 Alexander Djourik. All rights reserved.

    FILE: Крематорий - Реквием для Всадника без головы.flac
    Size: 291216298 Hash: 791542B07CB434B15EF972B8622B86A0 Accuracy: -m0
    Conclusion: CDDA 100%
    Signature: FB23B73D894DC916D0FB8FE52EF954797DB9190B

    EAC extraction logfile from 29. November 2007, 18:59 for CD
    Крематорий / Реквием для всадника без головы

    Used drive. _NEC DVD_RW ND-4550A Adapter: 4 ID: 2
    Read mode. Secure with NO C2, accurate stream, disable cache
    Read offset correction. 48
    Overread into Lead-In and Lead-Out. No

    Used output format. Internal WAV Routines
    44.100 Hz; 16 Bit; Stereo

    Other options :
    Fill up missing offset samples with silence. Yes
    Delete leading and trailing silent blocks. No
    Installed external ASPI interface

    Range status and errors
    Selected range
    Filename D:\Крематорий - Реквием для всадника без головы.wav

    Peak level 94.3 %
    Range quality 99.9 %
    CRC 4FEAC995
    Copy OK

    No errors occured

    End of status report

    Продолжительность 00:38:59
    01. Маша (3:24)
    02. Веселый ансамбль (4:13)
    03. Ангел (3:22)
    04. Киллер (2:47)
    05. Степной волк (3:06)
    06. Гей, попс (4:18)
    07. День сурка (3:19)
    08. Силы небесные (3:31)
    09. Снегурочка (3:46)
    10. Настоящее искусство (3:08)
    11. Герой детских сказок (4:05)

    DON'T MODIFY THIS FILE

    PERFORMER: auCDtect Task Manager, ver. 1.5.1RC4 build 1.5.1.5
    Copyright (c) 2008-2010 y-soft. All rights reserved
    http://y-soft.org

    ANALYZER: auCDtect: CD records authenticity detector, version 0.8.2
    Copyright (c) 2004 Oleg Berngardt. All rights reserved.
    Copyright (c) 2004 Alexander Djourik. All rights reserved.

    FILE: Крематорий - Мифология.flac
    Size: 271105070 Hash: C49F936ED5601047DD08A86AAFFA9914 Accuracy: -m0
    Conclusion: CDDA 100%
    Signature: C2ECCBC2CB8C8CDFD661E874C4CFB09A7843E5AA

    Exact Audio Copy V0.99 prebeta 4 from 23. January 2008

    Отчёт EAC об извлечении, выполненном 3. апреля 2008, 7:05

    Дисковод: ASUS DRW-1814BLT Adapter: 1 ID: 0

    Режим чтения. Достоверность
    Использование точного потока. Да
    Отключение кэша аудио. Да
    Использование указателей C2. Нет

    Коррекция смещения при чтении. 6
    Способность читать области Lead-in и Lead-out. Нет
    Заполнение пропущенных сэмплов тишиной. Да
    Удаление блоков с тишиной в начале и конце. Нет
    При вычислениях CRC использовались нулевые сэмплы. Да
    Интерфейс. Установленный внешний ASPI-интерфейс

    Выходной формат. Внутренние WAV-операции
    Формат сэмплов. 44.100 Гц; 16 бит; стерео

    TOC извлечённого CD

    Трек | Старт | Длительность | Начальный сектор | Конечный сектор
    ---------------------------------------------------------------------
    1 | 0:00.00 | 3:24.01 | 0 | 15300
    2 | 3:24.01 | 4:13.00 | 15301 | 34275
    3 | 7:37.01 | 3:22.33 | 34276 | 49458
    4 | 10:59.34 | 2:47.06 | 49459 | 61989
    5 | 13:46.40 | 3:05.59 | 61990 | 75923
    6 | 16:52.24 | 4:18.17 | 75924 | 95290
    7 | 21:10.41 | 3:19.09 | 95291 | 110224
    8 | 24:29.50 | 3:31.27 | 110225 | 126076
    9 | 28:01.02 | 3:45.42 | 126077 | 142993
    10 | 31:46.44 | 3:08.16 | 142994 | 157109
    11 | 34:54.60 | 4:05.12 | 157110 | 175496

    Характеристики диапазона извлечения и сообщения об ошибках

    Имя файла D:\Крематорий - Дискография [1983 - 2008] by moogle_\2002 - Мифология\Крематорий - Мифология.wav

    Пиковый уровень 100.0 %
    Качество диапазона 99.9 %
    CRC копии AA4DF082
    Копирование. OK

    Ошибок не произошло

    Трек 1 точное извлечение (доверие 1) [9808AAA3]
    Трек 2 точное извлечение (доверие 1) [25D05435]
    Трек 3 точное извлечение (доверие 1) [35FE1D35]
    Трек 4 точное извлечение (доверие 1) [500F3B1D]
    Трек 5 точное извлечение (доверие 1) [2ABBF226]
    Трек 6 точное извлечение (доверие 1) [DB17655F]
    Трек 7 точное извлечение (доверие 1) [0CD38868]
    Трек 8 точное извлечение (доверие 1) [1E0659F9]
    Трек 9 точное извлечение (доверие 1) [F126B61D]
    Трек 10 точное извлечение (доверие 1) [7062FDA1]
    Трек 11 точное извлечение (доверие 1) [919F7897]

    Все треки извлечены точно

    Продолжительность 00:56:20
    01. Ангел (3:25)
    02. 2001 год (3:46)
    03. Стрёмный корабль (1:37)
    04. Таня (4:20)
    05. Клубника со льдом (2:22)
    06. Америка (3:06)
    07. Безобразная Эльза (2:31)
    08. Лепрозорий (3:54)
    09. Хабибулин (3:18)
    10. Мусорный ветер (3:24)
    11. Катманду (4:06)
    12. Sexy cat (2:25)
    13. Последний шанс (Собачка) (3:38)
    14. Кондратий (1:25)
    15. Реанимационная машина (3:38)
    16. Крематорий (1:57)
    17. День Сурка (3:21)
    18. Весёлый ансамбль (4:10)

    DON'T MODIFY THIS FILE

    PERFORMER: auCDtect Task Manager, ver. 1.5.1RC4 build 1.5.1.5
    Copyright (c) 2008-2010 y-soft. All rights reserved
    http://y-soft.org

    ANALYZER: auCDtect: CD records authenticity detector, version 0.8.2
    Copyright (c) 2004 Oleg Berngardt. All rights reserved.
    Copyright (c) 2004 Alexander Djourik. All rights reserved.

    FILE: Крематорий - Сирены Титана.flac
    Size: 393964786 Hash: 5DAF008B0185AF043E70AC848ADE404F Accuracy: -m0
    Conclusion: CDDA 99%
    Signature: 91E5A457B9B1C869C9B94278469C1574EFD5389C

    Exact Audio Copy V0.99 prebeta 4 from 23. January 2008

    Отчёт EAC об извлечении, выполненном 11. апреля 2008, 05:33

    Крематорий / Сирены Титана

    Дисковод: ASUS DRW-1814BLT Adapter: 1 ID: 0

    Режим чтения. Достоверность
    Использование точного потока. Да
    Отключение кэша аудио. Да
    Использование указателей C2. Нет

    Коррекция смещения при чтении. 6
    Способность читать области Lead-in и Lead-out. Нет
    Заполнение пропущенных сэмплов тишиной. Да
    Удаление блоков с тишиной в начале и конце. Нет
    При вычислениях CRC использовались нулевые сэмплы. Да
    Интерфейс. Установленный внешний ASPI-интерфейс

    Выходной формат. Внутренние WAV-операции
    Формат сэмплов. 44.100 Гц; 16 бит; стерео

    Характеристики диапазона извлечения и сообщения об ошибках

    Имя файла C:\tmp2\Крематорий - Сирены Титана.wav

    Пиковый уровень 99.6 %
    Качество диапазона 100 %
    CRC копии 34260487
    Копирование. OK

    Ошибок не произошло

    Продолжительность 01:16:20
    01. Бадихойли (3:42)
    02. Катманду (4:02)
    03. Убежище (4:04)
    04. Яд (3:29)
    05. Зебры (3:49)
    06. Дом 'Голубые глаза' (2:37)
    07. 2001 год (3:42)
    08. Песня старого хиппа (0:34)
    09. Римский блюз (4:52)
    10. Смерти больше нет (5:26)
    11. Реанимационная машина (3:37)
    12. Шпалер (3:49)
    13. Три источника (3:20)
    14. Штраус (2:14)
    15. Реквием для Всадника без головы (4:59)
    16. Ботаника (3:52)
    17. Мата Хари блюз (5:40)
    18. Себастия (2:40)
    19. Мистер Тайсон (3:49)
    20. Проклятая жизнь (3:26)
    21. Эпитафия (2:36)

    DON'T MODIFY THIS FILE

    PERFORMER: auCDtect Task Manager, ver. 1.5.1RC4 build 1.5.1.5
    Copyright (c) 2008-2010 y-soft. All rights reserved
    http://y-soft.org

    ANALYZER: auCDtect: CD records authenticity detector, version 0.8.2
    Copyright (c) 2004 Oleg Berngardt. All rights reserved.
    Copyright (c) 2004 Alexander Djourik. All rights reserved.

    FILE: Крематорий - Легенды русского рока.Выпуск 2.flac
    Size: 556541748 Hash: DC8354420B6C492BBD2B6A840E66CF6C Accuracy: -m0
    Conclusion: CDDA 100%
    Signature: 13EE7E121FF144731AFEEE35EA73BBA202E6AB88

    Exact Audio Copy V0.99 prebeta 4 from 23. January 2008

    Отчёт EAC об извлечении, выполненном 26. июля 2008, 20:02

    Крематорий / Легенды русского рока.Выпуск 2

    Дисковод: TSSTcorpCDDVDW SH-S203D Adapter: 3 ID: 2

    Режим чтения. Достоверность
    Использование точного потока. Да
    Отключение кэша аудио. Да
    Использование указателей C2. Нет

    Коррекция смещения при чтении. 6
    Способность читать области Lead-in и Lead-out. Нет
    Заполнение пропущенных сэмплов тишиной. Да
    Удаление блоков с тишиной в начале и конце. Нет
    При вычислениях CRC использовались нулевые сэмплы. Да
    Интерфейс. Встроенный Win32-интерфейс для Win NT/2000

    Выходной формат. Внутренние WAV-операции
    Формат сэмплов. 44.100 Гц; 16 бит; стерео

    TOC извлечённого CD

    Трек | Старт | Длительность | Начальный сектор | Конечный сектор
    ---------------------------------------------------------------------
    1 | 0:00.00 | 3:42.20 | 0 | 16669
    2 | 3:42.20 | 4:02.05 | 16670 | 34824
    3 | 7:44.25 | 4:04.24 | 34825 | 53148
    4 | 11:48.49 | 3:29.33 | 53149 | 68856
    5 | 15:18.07 | 3:49.37 | 68857 | 86068
    6 | 19:07.44 | 2:37.13 | 86069 | 97856
    7 | 21:44.57 | 3:42.33 | 97857 | 114539
    8 | 25:27.15 | 0:34.05 | 114540 | 117094
    9 | 26:01.20 | 4:51.44 | 117095 | 138963
    10 | 30:52.64 | 5:26.19 | 138964 | 163432
    11 | 36:19.08 | 3:36.60 | 163433 | 179692
    12 | 39:55.68 | 3:49.18 | 179693 | 196885
    13 | 43:45.11 | 3:19.63 | 196886 | 211873
    14 | 47:04.74 | 2:13.59 | 211874 | 221907
    15 | 49:18.58 | 4:59.18 | 221908 | 244350
    16 | 54:18.01 | 3:51.58 | 244351 | 261733
    17 | 58:09.59 | 5:39.72 | 261734 | 287230
    18 | 63:49.56 | 2:40.12 | 287231 | 299242
    19 | 66:29.68 | 3:48.57 | 299243 | 316399
    20 | 70:18.50 | 3:26.11 | 316400 | 331860
    21 | 73:44.61 | 2:35.61 | 331861 | 343546

    Характеристики диапазона извлечения и сообщения об ошибках

    Имя файла D:\Новая папка\Крематорий - Легенды русского рока.Выпуск 2.wav

    Пиковый уровень 94.4 %
    Качество диапазона 100.0 %
    CRC копии 4ACD7B9A
    Копирование. OK

    Ошибок не произошло

    Продолжительность 00:40:23
    01. Рок'n'Roll (0:37)
    02. Танцуют Водолазы (2:33)
    03. Кащенко (3:32)
    04. Моя Соседка (3:01)
    05. Крылатые Слоны (3:42)
    06. Змеиный Отель (2:59)
    07. Ты Была Той Женщиной (1:31)
    08. Сперматозавр-Чемпион (3:20)
    09. Я Увидел Тебя (2:33)
    10. Стрёмный Корабль (1:36)
    11. Я Был Раздавлен (2:18)
    12. Орёл (1:07)
    13. Чёрная Пятница (3:28)
    14. Катаклизм (1:23)
    15. Ты Бежал За Мной (0:58)
    16. Это Было Так (2:37)
    17. Валерия (0:18)
    18. Я Тихо и Скромно (2:50)

    DON'T MODIFY THIS FILE

    PERFORMER: auCDtect Task Manager, ver. 1.5.1RC4 build 1.5.1.5
    Copyright (c) 2008-2010 y-soft. All rights reserved
    http://y-soft.org

    ANALYZER: auCDtect: CD records authenticity detector, version 0.8.2
    Copyright (c) 2004 Oleg Berngardt. All rights reserved.
    Copyright (c) 2004 Alexander Djourik. All rights reserved.

    FILE: Крематорий - Рock'n'Roll.flac
    Size: 273328917 Hash: A25B2CF7855A1B6401DCCC6226D90B0D Accuracy: -m0
    Conclusion: CDDA 100%
    Signature: 18EC9B5A4F0C01DDFC4AEF66B10B8F3E31340556

    Exact Audio Copy V0.99 prebeta 4 from 23. January 2008

    Отчёт EAC об извлечении, выполненном 14. апреля 2008, 9:56

    Дисковод: ASUS DRW-1814BLT Adapter: 1 ID: 0

    Режим чтения. Достоверность
    Использование точного потока. Да
    Отключение кэша аудио. Да
    Использование указателей C2. Нет

    Коррекция смещения при чтении. 6
    Способность читать области Lead-in и Lead-out. Нет
    Заполнение пропущенных сэмплов тишиной. Да
    Удаление блоков с тишиной в начале и конце. Нет
    При вычислениях CRC использовались нулевые сэмплы. Да
    Интерфейс. Установленный внешний ASPI-интерфейс

    Выходной формат. Внутренние WAV-операции
    Формат сэмплов. 44.100 Гц; 16 бит; стерео

    Характеристики диапазона извлечения и сообщения об ошибках

    Имя файла C:\tmp2\Крематорий - Рock'n'Roll.wav

    Пиковый уровень 94.3 %
    Качество диапазона 100 %
    CRC копии CDE1FE4E
    Копирование. OK

    Ошибок не произошло

    Продолжительность 01:03:07
    01. Белые столбы (3:22)
    02. Маша (3:10)
    03. Яд (3:21)
    04. Газы (2:49)
    05. Танцуют водолазы (2:39)
    06. Зебры (3:25)
    07. Крылатые слоны (3:32)
    08. Три гиены (2:49)
    09. Зомби (6:10)
    10. Клаустрофобия (5:34)
    11. Проклятая жизнь (2:58)
    12. Песня старого хиппа (0:37)
    13. Орел (0:44)
    14. Палковводец Красс (1:10)
    15. Кащенко (3:47)
    16. Америка (2:53)
    17. Наше время (4:15)
    18. Веселый ансамбль (3:29)
    19. Маленькая девочка (2:25)
    20. Катманду (3:59)

    DON'T MODIFY THIS FILE

    PERFORMER: auCDtect Task Manager, ver. 1.5.1RC4 build 1.5.1.5
    Copyright (c) 2008-2010 y-soft. All rights reserved
    http://y-soft.org

    ANALYZER: auCDtect: CD records authenticity detector, version 0.8.2
    Copyright (c) 2004 Oleg Berngardt. All rights reserved.
    Copyright (c) 2004 Alexander Djourik. All rights reserved.

    FILE: Крематорий - Юбилейный 20 лет.flac
    Size: 405680449 Hash: 513E8420FB28918A96A1C15792E27782 Accuracy: -m0
    Conclusion: CDDA 100%
    Signature: C351EF1CF2BB3C4615CB4542152CE3D4AA1FEBDE

    Exact Audio Copy V0.99 prebeta 4 from 23. January 2008

    EAC extraction logfile from 25. March 2008, 23:45

    Крематорий / Юбилейный 20 лет

    Used drive. PLEXTOR DVD-ROM PX-116A Adapter: 0 ID: 0

    Read mode. Secure
    Utilize accurate stream. Yes
    Defeat audio cache. Yes
    Make use of C2 pointers. No

    Read offset correction. 691
    Overread into Lead-In and Lead-Out. No
    Fill up missing offset samples with silence. Yes
    Delete leading and trailing silent blocks. No
    Null samples used in CRC calculations. No
    Used interface. Installed external ASPI interface

    Used output format. Internal WAV Routines
    Sample format. 44.100 Hz; 16 Bit; Stereo

    TOC of the extracted CD

    Track | Start | Length | Start sector | End sector
    ---------------------------------------------------------
    1 | 0:00.00 | 3:22.23 | 0 | 15172
    2 | 3:22.23 | 3:10.04 | 15173 | 29426
    3 | 6:32.27 | 3:20.38 | 29427 | 44464
    4 | 9:52.65 | 2:49.08 | 44465 | 57147
    5 | 12:41.73 | 2:38.44 | 57148 | 69041
    6 | 15:20.42 | 3:25.25 | 69042 | 84441
    7 | 18:45.67 | 3:32.21 | 84442 | 100362
    8 | 22:18.13 | 2:48.42 | 100363 | 113004
    9 | 25:06.55 | 6:09.69 | 113005 | 140748
    10 | 31:16.49 | 5:34.07 | 140749 | 165805
    11 | 36:50.56 | 2:57.53 | 165806 | 179133
    12 | 39:48.34 | 0:37.02 | 179134 | 181910
    13 | 40:25.36 | 0:44.06 | 181911 | 185216
    14 | 41:09.42 | 1:09.69 | 185217 | 190460
    15 | 42:19.36 | 3:47.14 | 190461 | 207499
    16 | 46:06.50 | 2:52.48 | 207500 | 220447
    17 | 48:59.23 | 4:15.07 | 220448 | 239579
    18 | 53:14.30 | 3:29.26 | 239580 | 255280
    19 | 56:43.56 | 2:25.04 | 255281 | 266159
    20 | 59:08.60 | 3:58.52 | 266160 | 284061

    Range status and errors

    Filename D:\music\Крематорий - Юбилейный 20 лет.wav

    Peak level 100.0 %
    Range quality 100.0 %
    Copy CRC E1CF0243
    Copy OK

    No errors occurred

    Track 1 not present in database
    Track 2 not present in database
    Track 3 not present in database
    Track 4 not present in database
    Track 5 not present in database
    Track 6 not present in database
    Track 7 not present in database
    Track 8 not present in database
    Track 9 not present in database
    Track 10 not present in database
    Track 11 not present in database
    Track 12 not present in database
    Track 13 not present in database
    Track 14 not present in database
    Track 15 not present in database
    Track 16 not present in database
    Track 17 not present in database
    Track 18 not present in database
    Track 19 not present in database
    Track 20 not present in database

    None of the tracks are present in the AccurateRip database

    End of status report

    Продолжительность 00:41:43
    01. Амстердам (3:53)
    02. Гоблины и Хоббиты (3:41)
    03. Рукоблудница Лида (3:17)
    04. Любаша (4:00)
    05. Оля (2:24)
    06. Голый Парад (4:34)
    07. Теплые Дни Лета (4:01)
    08. Не дрянь (3:17)
    09. Женщина – Пила (2:49)
    10. Всадник (3:08)
    11. Лунатик (3:32)
    12. Ромео и Джульетта (3:09)

    DON'T MODIFY THIS FILE

    PERFORMER: auCDtect Task Manager, ver. 1.5.1RC4 build 1.5.1.5
    Copyright (c) 2008-2010 y-soft. All rights reserved
    http://y-soft.org

    ANALYZER: auCDtect: CD records authenticity detector, version 0.8.2
    Copyright (c) 2004 Oleg Berngardt. All rights reserved.
    Copyright (c) 2004 Alexander Djourik. All rights reserved.

    FILE: Крематорий - Амстердам.flac
    Size: 295236664 Hash: 301933EA5AD554D13A2959CC5AE04DC9 Accuracy: -m0
    Conclusion: CDDA 100%
    Signature: D6039423404C4BC9B8578243F8F9A9AF576E23FC

    Отчёт EAC об извлечении, выполненном 10. апреля 2008, 17:21 для диска:
    Unknown Artist / Unknown Title

    Дисковод: _NEC CD-RW NR-9500B Adapter: 0 ID: 1
    Режим чтения: Достоверный (C2: нет, Точный поток: да, Отключение кэша: да)
    Комбинированное смещение чтения/записи: +145
    Способность читать области Lead-in и Lead-out. Нет

    Выходной формат: Monkey's Audio Lossless Encoder v3.99 DLL
    Fast Lossless Compression

    Другие параметры:
    Заполнение пропущенных сэмплов тишиной. Да
    Удаление блоков с тишиной в начале и конце. Нет
    Встроенный Win32-интерфейс для Win NT/2000

    Характеристики диапазона извлечения и сообщения об ошибках
    Выбранный диапазон
    Имя файла H:\Крематорий\2008 - Амстердам-АРЕ\Unknown Artist - Unknown Title.ape

    Пиковый уровень 100.0 %
    Качество диапазона 100.0 %
    CRC E6A9B6E8
    Копирование. OK

    Ошибок не произошло

    Продолжительность 00:54:11
    01. Фредди Крьгер (3:31)
    02. Агни-Йга (4:06)
    03. Китайский Танк (3:10)
    04. L'amour De Trois (4:16)
    05. Студент-Отшельник (4:09)
    06. Моя Лошадь (3:58)
    07. Маразм Неизбежен (4:57)
    08. XXXL (4:24)
    09. Отец Родной (3:39)
    10. Конец Света (4:20)
    11. Король-Краснобай (3:14)
    12. Похмельный Рештайм (3:33)
    13. Агни-Йога (Remix) (3:44)
    14. Chinese Tank (3:09)

    DON'T MODIFY THIS FILE

    PERFORMER: auCDtect Task Manager, ver. 1.5.1RC4 build 1.5.1.5
    Copyright (c) 2008-2010 y-soft. All rights reserved
    http://y-soft.org

    ANALYZER: auCDtect: CD records authenticity detector, version 0.8.2
    Copyright (c) 2004 Oleg Berngardt. All rights reserved.
    Copyright (c) 2004 Alexander Djourik. All rights reserved.

    FILE: Крематорий - Амстердам.flac
    Size: 295236664 Hash: 301933EA5AD554D13A2959CC5AE04DC9 Accuracy: -m0
    Conclusion: CDDA 100%
    Signature: D6039423404C4BC9B8578243F8F9A9AF576E23FC

    Отчёт EAC об извлечении, выполненном 10. апреля 2008, 17:21 для диска:
    Unknown Artist / Unknown Title

    Дисковод: _NEC CD-RW NR-9500B Adapter: 0 ID: 1
    Режим чтения: Достоверный (C2: нет, Точный поток: да, Отключение кэша: да)
    Комбинированное смещение чтения/записи: +145
    Способность читать области Lead-in и Lead-out. Нет

    Выходной формат: Monkey's Audio Lossless Encoder v3.99 DLL
    Fast Lossless Compression

    Другие параметры:
    Заполнение пропущенных сэмплов тишиной. Да
    Удаление блоков с тишиной в начале и конце. Нет
    Встроенный Win32-интерфейс для Win NT/2000

    Характеристики диапазона извлечения и сообщения об ошибках
    Выбранный диапазон
    Имя файла H:\Крематорий\2008 - Амстердам-АРЕ\Unknown Artist - Unknown Title.ape

    Пиковый уровень 100.0 %
    Качество диапазона 100.0 %
    CRC E6A9B6E8
    Копирование. OK

    Ошибок не произошло

    Продолжительность 01:19:18
    01. - Геенна огненная (3:06)
    02. - 2001 год (3:14)
    03. - Амстердам (3:53)
    04. - Яд (3:28)
    05. - Сексуальная кошка (2:13)
    06. - Оля (2:05)
    07. - Последний шанс (2:50)
    08. - Зомби (4:07)
    09. - Безобразная Эльза (2:57)
    10. - Китайский танк (2:50)
    11. - Штраус (2:14)
    12. - Таня (4:11)
    13. - Всадник (2:56)
    14. - Лепрозорий (3:49)
    15. - Катманду (3:46)
    16. - Маленькая девочка (2:10)
    17. - Реанимационная машина (3:47)
    18. - Без крыльев, как дым (2:52)
    19. - Аутсайдер (2:46)
    20. - Клубника со льдом (2:18)
    21. - Белые столбы (3:17)
    22. - Ромео и Джульетта (3:11)
    23. - Мусорный ветер (3:02)
    24. - Африканка (4:17)
    25. - Веселый ансамбль (4:00)

    DON'T MODIFY THIS FILE

    PERFORMER: auCDtect Task Manager, ver. 1.5.1RC4 build 1.5.1.5
    Copyright (c) 2008-2010 y-soft. All rights reserved
    http://y-soft.org

    ANALYZER: auCDtect: CD records authenticity detector, version 0.8.2
    Copyright (c) 2004 Oleg Berngardt. All rights reserved.
    Copyright (c) 2004 Alexander Djourik. All rights reserved.

    FILE: Крематорий - 2009 - XXV лет. The Best.flac
    Size: 593443252 Hash: 4531DF6129B7EF80D2519B7741731802 Accuracy: -m0
    Conclusion: CDDA 100%
    Signature: E15D46ED478C7263A0E68CE6729C1275319D9213

    Exact Audio Copy V0.99 prebeta 5 from 4. May 2009

    EAC extraction logfile from 20. June 2009, 14:34

    Крематорий / The best XXV лет

    Used drive. ASUS DRW-2014L1T Adapter: 7 ID: 0

    Read mode. Secure
    Utilize accurate stream. Yes
    Defeat audio cache. Yes
    Make use of C2 pointers. No

    Read offset correction. 6
    Overread into Lead-In and Lead-Out. No
    Fill up missing offset samples with silence. Yes
    Delete leading and trailing silent blocks. No
    Null samples used in CRC calculations. Yes
    Used interface. Native Win32 interface for Win NT & 2000

    Used output format. Internal WAV Routines
    Sample format. 44.100 Hz; 16 Bit; Stereo

    TOC of the extracted CD

    Track | Start | Length | Start sector | End sector
    ---------------------------------------------------------
    1 | 0:00.00 | 3:05.71 | 0 | 13945
    2 | 3:05.71 | 3:14.10 | 13946 | 28505
    3 | 6:20.06 | 3:52.66 | 28506 | 45971
    4 | 10:12.72 | 3:28.04 | 45972 | 61575
    5 | 13:41.01 | 2:12.57 | 61576 | 71532
    6 | 15:53.58 | 2:05.07 | 71533 | 80914
    7 | 17:58.65 | 2:49.55 | 80915 | 93644
    8 | 20:48.45 | 4:07.17 | 93645 | 112186
    9 | 24:55.62 | 2:57.28 | 112187 | 125489
    10 | 27:53.15 | 2:49.72 | 125490 | 138236
    11 | 30:43.12 | 2:13.42 | 138237 | 148253
    12 | 32:56.54 | 4:11.26 | 148254 | 167104
    13 | 37:08.05 | 2:56.11 | 167105 | 180315
    14 | 40:04.16 | 3:49.14 | 180316 | 197504
    15 | 43:53.30 | 3:46.15 | 197505 | 214469
    16 | 47:39.45 | 2:10.33 | 214470 | 224252
    17 | 49:50.03 | 3:46.40 | 224253 | 241242
    18 | 53:36.43 | 2:52.16 | 241243 | 254158
    19 | 56:28.59 | 2:46.02 | 254159 | 266610
    20 | 59:14.61 | 2:17.53 | 266611 | 276938
    21 | 61:32.39 | 3:16.48 | 276939 | 291686
    22 | 64:49.12 | 3:10.72 | 291687 | 306008
    23 | 68:00.09 | 3:01.40 | 306009 | 319623
    24 | 71:01.49 | 4:16.50 | 319624 | 338873
    25 | 75:18.24 | 4:00.01 | 338874 | 356874

    Range status and errors

    Filename D:\Audio\!eac\Крематорий - 2009 - The best XXV лет.wav

    Peak level 100.0 %
    Range quality 100.0 %
    Copy CRC 839FD51D
    Copy OK

    No errors occurred

    Track 1 not present in database
    Track 2 not present in database
    Track 3 not present in database
    Track 4 not present in database
    Track 5 not present in database
    Track 6 not present in database
    Track 7 not present in database
    Track 8 not present in database
    Track 9 not present in database
    Track 10 not present in database
    Track 11 not present in database
    Track 12 not present in database
    Track 13 not present in database
    Track 14 not present in database
    Track 15 not present in database
    Track 16 not present in database
    Track 17 not present in database
    Track 18 not present in database
    Track 19 not present in database
    Track 20 not present in database
    Track 21 not present in database
    Track 22 not present in database
    Track 23 not present in database
    Track 24 not present in database
    Track 25 not present in database

    None of the tracks are present in the AccurateRip database

    End of status report

    Продолжительность 00:43:48
    01. - Пролог (2:47)
    02. - ''Атмосферное давление'' (1:24)
    03. - Первый концерт. Родион Щедрин, Вальс-рок (2:09)
    04. - КГБ и РОК-лаборатория (1:04)
    05. - ''Иллюзорный мир''. Россовский, Зайцев и шляпа (1:46)
    06. - Телега ''Комната'' (1:11)
    07. - 1988. ''Кота''. Эльза и Венечка (1:09)
    08. - Сараев, Третьяков (1:01)
    09. - ''Аврора'' и Житинский (0:52)
    10. - ''Живые и мертвые'' (1:06)
    11. - ''Клубника со льдом'' (1:07)
    12. - Сибириада (1:00)
    13. - ''Зомби'' и художник Василий Гаврилов (3:31)
    14. - История одной ночи и Соловки (2:26)
    15. - 10-летие Кт. Вологодские Деметры (2:24)
    16. - Телега ''Рок-звезда'' (0:54)
    17. - ''Тацу''. Бухаров. Кабала (3:36)
    18. - ''Водка'' и Дом с трубой (1:32)
    19. - Портрет Альтиста Данилова (1:49)
    20. - Телега ''Буйный'' (0:53)
    21. - Первый мировой тур и ''Три источника'' (1:48)
    22. - ''Мифология'' (1:17)
    23. - Третий ангел. ''Китайский танк'' (0:49)
    24. - ''Амстердам'' (2:12)
    25. - Эпилог (4:02)

    DON'T MODIFY THIS FILE

    PERFORMER: auCDtect Task Manager, ver. 1.5.1RC4 build 1.5.1.5
    Copyright (c) 2008-2010 y-soft. All rights reserved
    http://y-soft.org

    ANALYZER: auCDtect: CD records authenticity detector, version 0.8.2
    Copyright (c) 2004 Oleg Berngardt. All rights reserved.
    Copyright (c) 2004 Alexander Djourik. All rights reserved.

    FILE: Крематорий - 2009 - Аудиокнига.flac
    Size: 237867254 Hash: 6D82137BB04E55E7A98E8A49FD411E02 Accuracy: -m0
    Conclusion: MPEG 95%
    Signature: 4D839F75C71255131E85F6549C8F202B4ED2ABB8

    Exact Audio Copy V0.99 prebeta 5 from 4. May 2009

    EAC extraction logfile from 20. June 2009, 14:49

    Used drive. ASUS DRW-2014L1T Adapter: 7 ID: 0

    Read mode. Secure
    Utilize accurate stream. Yes
    Defeat audio cache. Yes
    Make use of C2 pointers. No

    Read offset correction. 6
    Overread into Lead-In and Lead-Out. No
    Fill up missing offset samples with silence. Yes
    Delete leading and trailing silent blocks. No
    Null samples used in CRC calculations. Yes
    Used interface. Native Win32 interface for Win NT & 2000

    Used output format. Internal WAV Routines
    Sample format. 44.100 Hz; 16 Bit; Stereo

    TOC of the extracted CD

    Track | Start | Length | Start sector | End sector
    ---------------------------------------------------------
    1 | 0:00.00 | 2:46.72 | 0 | 12521
    2 | 2:46.72 | 1:24.27 | 12522 | 18848
    3 | 4:11.24 | 2:09.03 | 18849 | 28526
    4 | 6:20.27 | 1:04.09 | 28527 | 33335
    5 | 7:24.36 | 1:45.67 | 33336 | 41277
    6 | 9:10.28 | 1:10.72 | 41278 | 46599
    7 | 10:21.25 | 1:08.48 | 46600 | 51747
    8 | 11:29.73 | 1:01.22 | 51748 | 56344
    9 | 12:31.20 | 0:52.29 | 56345 | 60273
    10 | 13:23.49 | 1:05.71 | 60274 | 65219
    11 | 14:29.45 | 1:07.12 | 65220 | 70256
    12 | 15:36.57 | 1:00.18 | 70257 | 74774
    13 | 16:37.00 | 3:30.73 | 74775 | 90597
    14 | 20:07.73 | 2:26.17 | 90598 | 101564
    15 | 22:34.15 | 2:23.44 | 101565 | 112333
    16 | 24:57.59 | 0:53.70 | 112334 | 116378
    17 | 25:51.54 | 3:35.38 | 116379 | 132541
    18 | 29:27.17 | 1:31.55 | 132542 | 139421
    19 | 30:58.72 | 1:48.60 | 139422 | 147581
    20 | 32:47.57 | 0:52.48 | 147582 | 151529
    21 | 33:40.30 | 1:47.58 | 151530 | 159612
    22 | 35:28.13 | 1:16.56 | 159613 | 165368
    23 | 36:44.69 | 0:49.30 | 165369 | 169073
    24 | 37:34.24 | 2:11.63 | 169074 | 178961
    25 | 39:46.12 | 4:02.32 | 178962 | 197143

    Range status and errors

    Filename D:\Audio\!eac\Крематорий - 2009 - Аудиокнига.wav

    Peak level 100.0 %
    Range quality 100.0 %
    Copy CRC 42B4D99C
    Copy OK

    No errors occurred

    Track 1 not present in database
    Track 2 not present in database
    Track 3 not present in database
    Track 4 not present in database
    Track 5 not present in database
    Track 6 not present in database
    Track 7 not present in database
    Track 8 not present in database
    Track 9 not present in database
    Track 10 not present in database
    Track 11 not present in database
    Track 12 not present in database
    Track 13 not present in database
    Track 14 not present in database
    Track 15 not present in database
    Track 16 not present in database
    Track 17 not present in database
    Track 18 not present in database
    Track 19 not present in database
    Track 20 not present in database
    Track 21 not present in database
    Track 22 not present in database
    Track 23 not present in database
    Track 24 not present in database
    Track 25 not present in database

    None of the tracks are present in the AccurateRip database

    End of status report

    Продолжительность 00:33:08
    01. - Увертюра (0:39)
    02. - Чемодан Президента (3:48)
    03. - Вервольф (3:24)
    04. - Микроб Бондарчук (3:40)
    05. - Мэрилин (4:28)
    06. - Дуэль (3:09)
    07. - Город Солнца (4:10)
    08. - Лёша (2:42)
    09. - Легион (Звери Лютые) (3:37)
    10. - По Ту Сторону Зла (3:33)

    DON'T MODIFY THIS FILE

    PERFORMER: auCDtect Task Manager, ver. 1.5.1RC3 build 1.5.1.4
    Copyright (c) 2008-2010 y-soft. All rights reserved
    http://y-soft.org

    ANALYZER: auCDtect: CD records authenticity detector, version 0.8.2
    Copyright (c) 2004 Oleg Berngardt. All rights reserved.
    Copyright (c) 2004 Alexander Djourik. All rights reserved.

    FILE: Крематорий - Чемодан президента (2013).flac
    Size: 205598113 Hash: 7DA75903B9802135B22A4B6043B66006 Accuracy: -m0
    Conclusion: CDDA 100%
    Signature: D21298508B2CBBBE6BC16311E5262251A74047C4

    Exact Audio Copy V1.0 beta 3 from 29. August 2011

    EAC extraction logfile from 28. April 2013, 16:13

    Крематорий / Чемодан президента

    Used drive. ASUS BW-12B1ST Adapter: 4 ID: 0

    Read mode. Secure
    Utilize accurate stream. Yes
    Defeat audio cache. Yes
    Make use of C2 pointers. No

    Read offset correction. 6
    Overread into Lead-In and Lead-Out. No
    Fill up missing offset samples with silence. Yes
    Delete leading and trailing silent blocks. No
    Null samples used in CRC calculations. Yes
    Used interface. Native Win32 interface for Win NT & 2000

    Used output format. Internal WAV Routines
    Sample format. 44.100 Hz; 16 Bit; Stereo

    TOC of the extracted CD

    Track | Start | Length | Start sector | End sector
    ---------------------------------------------------------
    1 | 0:00.00 | 0:38.63 | 0 | 2912
    2 | 0:38.63 | 3:47.65 | 2913 | 20002
    3 | 4:26.53 | 3:23.72 | 20003 | 35299
    4 | 7:50.50 | 3:39.41 | 35300 | 51765
    5 | 11:30.16 | 4:28.05 | 51766 | 71870
    6 | 15:58.21 | 3:08.72 | 71871 | 86042
    7 | 19:07.18 | 4:09.47 | 86043 | 104764
    8 | 23:16.65 | 2:42.04 | 104765 | 116918
    9 | 25:58.69 | 3:37.08 | 116919 | 133201
    10 | 29:36.02 | 3:32.45 | 133202 | 149146
    11 | 35:40.47 | 8:45.65 | 160547 | 199986

    Range status and errors

    Filename G:\Music\Crematorium - President's Suitcase (2013)\Crematorium - President's Suitcase.wav

    Peak level 100.0 %
    Extraction speed 3.2 X
    Range quality 100.0 %
    Test CRC 809F9597
    Copy CRC 809F9597
    Copy OK

    No errors occurred

    Track 1 not present in database
    Track 2 not present in database
    Track 3 not present in database
    Track 4 not present in database
    Track 5 not present in database
    Track 6 not present in database
    Track 7 not present in database
    Track 8 not present in database
    Track 9 not present in database
    Track 10 not present in database

    None of the tracks are present in the AccurateRip database

    End of status report

    ==== Log checksum F2640B9F3AA3861DC16403D47D38779A89B13C7A58F87F5AF526174DC739BC9C ====

    Продолжительность 00:39:30
    01. - Ave Caesar (1:36)
    02. - Супермаркет (3:46)
    03. - Гудвин (3:52)
    04. - Брунхильда (3:49)
    05. - Текила Бум (3:27)
    06. - Ричард III (3:17)
    07. - Света (3:09)
    08. - Верёвка и мыло (3:35)
    09. - Бенито (Хуарес) (3:13)
    10. - Жизнь (3:19)
    11. - Perpetuum Mobile, Pt. I (1:11)
    12. - Perpetuum Mobile, Pt. II (2:50)
    13. - Люди-невидимки (2:24)

    DON'T MODIFY THIS FILE

    PERFORMER: auCDtect Task Manager, ver. 1.6.0 RC1 build 1.6.0.1
    Copyright (c) 2008-2010 y-soft. All rights reserved
    http://y-soft.org

    ANALYZER: auCDtect: CD records authenticity detector, version 0.8.2
    Copyright (c) 2004 Oleg Berngardt. All rights reserved.
    Copyright (c) 2004 Alexander Djourik. All rights reserved.

    FILE: Крематорий - Люди-невидимки.flac
    Size: 289442254 Hash: A9AA3BDE61A0D0C08FC8E0F7C1C89C81 Accuracy: -m0
    Conclusion: CDDA 100%
    Signature: 33A230F4B5C3614B1F95651037F674D37DE9BB5E

    Exact Audio Copy V1.0 beta 3 from 29. August 2011

    Отчёт EAC об извлечении, выполненном 30. августа 2016, 23:15

    Дисковод: PIONEER DVD-RW DVR-221L Adapter: 3 ID: 0

    Режим чтения. Достоверность
    Использование точного потока. Да
    Отключение кэша аудио. Да
    Использование указателей C2. Нет

    Коррекция смещения при чтении. 6
    Способность читать области Lead-in и Lead-out. Нет
    Заполнение пропущенных сэмплов тишиной. Да
    Удаление блоков с тишиной в начале и конце. Нет
    При вычислениях CRC использовались нулевые сэмплы. Да
    Интерфейс. Встроенный Win32-интерфейс для Win NT/2000

    Выходной формат. Пользовательский кодировщик
    Выбранный битрейт. 768 kBit/s
    Качество. Высокий
    Добавление ID3-тега. Нет
    Утилита сжатия. C:\Program Files (x86)\Exact Audio Copy\FLAC\FLAC.EXE
    Дополнительные параметры. -6 -V -T "ARTIST=%artist%" -T "TITLE=%title%" -T "ALBUM=%albumtitle%" -T "DATE=%year%" -T "TRACKNUMBER=%tracknr%" -T "GENRE=%genre%" -T "COMMENT=%comment%" -T "BAND=%albuminterpret%" -T "ALBUMARTIST=%albuminterpret%" -T "COMPOSER=%composer%" %haslyrics%--tag-from-file=LYRICS="%lyricsfile%"%haslyrics% -T "DISCNUMBER=%cdnumber%" -T "TOTALDISCS=%totalcds%" -T "TOTALTRACKS=%numtracks%" %hascover%--picture="%coverfile%"%hascover% %source% -o %dest%

    TOC извлечённого CD

    Трек | Старт | Длительность | Начальный сектор | Конечный сектор
    ---------------------------------------------------------------------
    1 | 0:00.00 | 1:35.04 | 0 | 7128
    2 | 1:35.04 | 3:45.72 | 7129 | 24075
    3 | 5:21.01 | 3:51.19 | 24076 | 41419
    4 | 9:12.20 | 3:48.13 | 41420 | 58532
    5 | 13:00.33 | 3:27.00 | 58533 | 74057
    6 | 16:27.33 | 3:16.23 | 74058 | 88780
    7 | 19:43.56 | 3:08.45 | 88781 | 102925
    8 | 22:52.26 | 3:34.25 | 102926 | 119000
    9 | 26:26.51 | 3:12.42 | 119001 | 133442
    10 | 29:39.18 | 3:18.34 | 133443 | 148326
    11 | 32:57.52 | 1:09.39 | 148327 | 153540
    12 | 34:07.16 | 2:49.44 | 153541 | 166259
    13 | 36:56.60 | 2:23.34 | 166260 | 177018

    Характеристики диапазона извлечения и сообщения об ошибках

    Имя файла E:\торрент\Крематорий-ЛЮДИ-НЕВИДИМКИ(2016)\Крематорий - ЛЮДИ-НЕВИДИМКИ.wav

    Пиковый уровень 96.6 %
    Скорость извлечения 4.4 X
    Качество диапазона 100.0 %
    CRC теста 4F42AD22
    CRC копии 4F42AD22
    Копирование. OK

    Ошибок не произошло

    Трек 1 отсутствует в базе данных
    Трек 2 отсутствует в базе данных
    Трек 3 отсутствует в базе данных
    Трек 4 отсутствует в базе данных
    Трек 5 отсутствует в базе данных
    Трек 6 отсутствует в базе данных
    Трек 7 отсутствует в базе данных
    Трек 8 отсутствует в базе данных
    Трек 9 отсутствует в базе данных
    Трек 10 отсутствует в базе данных
    Трек 11 отсутствует в базе данных
    Трек 12 отсутствует в базе данных
    Трек 13 отсутствует в базе данных

    Ни одного трека нет в базе AccurateRip

    Время раздачи: С 18:00 до 22:00 Киев

    2009 - XXV-The Best
    2009 - XXV-Аудиокнига
    2013 - Чемодан президента
    2016 - Люди-невидимки