Софт-Портал

скачать торрент чудо техники

Рейтинг: 4.5/5.0 (566 проголосовавших)

Категория: Торрент-файлы

Описание

Скачать фильм Чудо техники с Сергеем Малозёмовым (2016) SATRip через торрент

Скачать фильм Чудо техники с Сергеем Малозёмовым (Эфир от 16.10.2016) (ТК "НТВ") / [2016, документальный, SATRip] - торрент

Чудо техники с Сергеем Малозёмовым (Эфир от 16.10.2016)
Скачать торрент чудо техники
Перевод: Не требуется, cубтитры. отсутствуют
Формат: SATRip. AVI, XviD, MP3
Страна: Россия
Режиссер: ТК "НТВ"
Жанр: документальный
Продолжительность:

Описание: «Чудо техники» — это доходчивый и интересный рассказ о новейших научных разработках, которые способны поменять или уже меняют нашу повседневную жизнь. Автор проекта — Сергей Малозёмов — хорошо знаком зрителям НТВ по репортажам программы «Сегодня», касающимся новых технологий, гаджетов, медицины. Он в курсе последних научных разработок и одним из первых узнает о значимых изобретениях. Теперь обо всем, что происходит на передовой научно-технического прогресса, узнают и зрители НТВ. Новинки и открытия со всего мира создатели проекта подвергнут самому тщательному анализу: что-то протестируют на себе или специально приглашенных героях, узнают мнения экспертов, постараются проникнуть в саму суть вещей при помощи компьютерной графики и экспериментов в лаборатории. Когда можно будет попробовать мясо из пробирки и каково оно будет на вкус? Можно ли доверить уборку дома роботу и правда ли инфракрасный обогреватель лучше греет? Скоро ли нам будут доступны безболезненные уколы? Ответы на эти и многие другие вопросы – в каждом выпуске проекта «Чудо техники».

В выпуске:
Каменная посуда. Чем она лучше обычной? Почему не всё, что продают на рынке под названием "каменная посуда", таковым является? И как не ошибиться, чтобы не купить с микротрещинами? Покупаем сами и готовим.
Дрейфующий дом, плавучий туристический автобус и другие необычные чудеса техники, способные уверенно держаться на воде.
А также - чудо-товары или все-таки вещи бестолковые и ненужные? Тестируем паровую щетку-утюжок, ротовертер и меламиновую губку.
И человек, который все открывает без ключей. В рубрике "Умелец недели" - русский терминатор.

Видео: 720x448 (1.80:1), 25 fps, XviD build 73

1805 kbps avg, 0.25 bit/pixel
Аудио: 48 kHz, MPEG Layer 3, 2 ch,

Скачать торрент чудо техники

Скачать торрент чудо техники

Скачать торрент чудо техники

Скачать торрент чудо техники

скачать торрент чудо техники:

  • скачать
  • скачать
  • Другие статьи

    Скачать торрент Чудо техники с Сергеем Малоземовым (2015) SATRip

    Свободный торрент трекер рутор орг зеркало.

    У многих в последнее время не работает рутор или руторг зеркало. многие думают, что рутор закрыли. или рутор заблокировали. Приходится искать другие торренты типа нью рутор. чтобы скачать фильмы торрент. игры или музыку. Специально для пользователей торрент ов мы создали свое зеркало рутора. Нас не заблокируют. не закроют. наше зеркало рутора крутор орг. доступно всегда. Все релизы рутора у нас появляются моментально, новинки сериалов. новики фильмов торрент. последние новинки игр для pc все это у нас имееется, и все это очень просто и быстро скачать. Скачивайте фильмы 2015 через торрент. игры torrent. книги. музыку. обои. сериалы. Не нужно больше искать где-то еще, и попадать под риск, скачивая подозрительные ехе или что-то подобное. KRUTOR.org самое надежное зеркало rutor в рунете. KRUTOR.org на данный момент одно из самых стабильных зеркалруторг трекер а. На нем вы найдете rutor org игры (рутор игры ), руторг мультики. rutor org поиск. Есть много других зеркал, на подобии rutor net. rutor org new. новый рутор. но наш torrent tracker самый стабильный и безопасный. Скачивая торренты через наш KRUTOR.orgруторг трекер вы не рискуете ничем. KRUTOR.org скачать бесплатно руторг .

    Скачать торрент чудо техники

    Скачать торрент Чудо техники с Сергеем Малоземовым [13.09] (2015) SATRip

    Скачать торрент чудо техники


    Скачать торрент чудо техники

    Информация о фильме
    Название: Чудо техники с Сергеем Малоземовым
    Год выхода: 2015
    Ведущий: Сергей Малоземов

    О фильме:
    Пьянству – бой! Высокие технологии – за здоровый образ жизни. Как победить инсульт? Скорая электронная помощь. А также – умный чайник, видеохолодильник, телевизионная духовка и 5 новейших приборов для спасения урожая.


    Продолжительность: 00:25:00
    Перевод: Не требуется

    1800 kbps avg, 0.22 bit/pixel
    Звук: 48 kHz, MPEG Layer 3, 2 ch,

    Чудо техники — Chudo tehniki (2012-2016) Смотреть Сериал онлайн или Cкачать торрент бесплатно

    Сериал Чудо техники — Chudo tehniki (2012-2016)

    Скачать торрент чудо техники

    Год выпуска. 2012-2016
    Страна. Россия
    Жанр. телепередача, тв-шоу
    Продолжительность. 133+ выпусков
    Перевод. Русский (Оригинал)

    Режиссер. НТВ
    В ролях. Сергей Малозёмов

    Описание Сериала. Когда кто-то сидит и читает данное описание, в мире совершается очередное открытие, создается новая технология и зарождается в уме ученых новая идея. Прогресс никогда не останавливается, поэтому простые люди получают прекрасную возможность насладиться всеми его прелестями и возможностями. Передача «Чудо техники» - это доходчивое и интересное повествование, которое затрагивает исключительно самые новые научные разработки, способные изменить или же уже меняющие весь ход повседневной жизни. Смотреть этот формат в онлайн лучше всего на нашей электронной странице.

    Роль ведущего досталась уже знакомому телевизионному персонажу, главная задача которого заключалась в ведении одной из рубрик ежедневных новостей. Как и прежде, он будет рассказывать про новые технологии, гаджеты и прочие изобретения. Ему известны все самые последние научные разработки, поэтому информация, которая касается действительно важных изобретений, попадает к нему из самых первых уст. Благодаря его деятельности об этом смогут узнать и многочисленные телезрители, которые решат понаблюдать за ходом развития событий очередного сюжета.

    Интересно, что многие новинки и открытия подпадают под самый тщательный анализ, который проводят приглашенные герои. Они не будут церемониться и проведут полное обследование каждого конкретного изобретения. В их распоряжении имеется целая лаборатория, в которой доступны все необходимые приспособления и устройства. Отдельная роль в данном деле отводится компьютерной графике, при помощи которой ведется полное проектирование существующих вариантов. Многим людям действительно интересно, когда мясо из пробирки станет доступным для покупателей, и какой именно будет его вкус. Может ли робот справиться с домашней уборкой, и насколько удобней будет использование инфракрасного обогревателя в домашних условиях. Ходят слухи, что в скором времени пациенты перестанут бояться уколов, ведь они станут безболезненными.

    Смотреть онлайн сериал: Чудо техники — Chudo tehniki (2012-2016) Дополнительный плеер

    Скачать торрент чудо техникиЕсли не работает видео в онлайн просмотре или не скачивает сериал через торрент, напишите нам через обратную связь, и мы постараемся быстро решить проблему. нажмите здесь

    Скачать торрент чудо техники

    Информация по торренту сериала
    • Продолжительность сериала: 1 сезон 149 из. серий;
    • Размер сериала: 1-128 серии 48,47 ГБ; 1-80 серии 26,2 ГБ; 81-99 серии 8,8 ГБ; 100-149 серии 24,19 ГБ;
    • Формат видео: AVI

    Чудо техники с Сергеем Малозёмовым эфир от (2017) скачать торрент в качестве hd

    Чудо техники с Сергеем Малозёмовым (эфир от 12.03.2017) (2017) SATRip скачать торрент

    Скачал сам. Дай скачать другим, не уходи с раздачи.

    Название: Чудо техники с Сергеем Малозёмовым
    Год выпуска: 2017
    Жанр: Документальный, научно-познавательный, разработки, технологии, исследования
    Выпущено: Россия, ТК 'НТВ'
    Ведущий: Сергей Малозёмов

    Описание:
    «Чудо техники» — это доходчивый и интересный рассказ о новейших научных разработках, которые способны поменять или уже меняют нашу повседневную жизнь. Автор проекта — Сергей Малозёмов — хорошо знаком зрителям НТВ по репортажам программы «Сегодня», касающимся новых технологий, гаджетов, медицины. Он в курсе последних научных разработок и одним из первых узнает о значимых изобретениях. Теперь обо всем, что происходит на передовой научно-технического прогресса, узнают и зрители НТВ. Новинки и открытия со всего мира создатели проекта подвергнут самому тщательному анализу: что-то протестируют на себе или специально приглашенных героях, узнают мнения экспертов, постараются проникнуть в саму суть вещей при помощи компьютерной графики и экспериментов в лаборатории. Когда можно будет попробовать мясо из пробирки и каково оно будет на вкус? Можно ли доверить уборку дома роботу и правда ли инфракрасный обогреватель лучше греет? Скоро ли нам будут доступны безболезненные уколы? Ответы на эти и многие другие вопросы – в каждом выпуске проекта «Чудо техники».

    Видео данные: XviD, 1799 kbps, 720x448
    Аудио данные: русский, MP3, 128 kbps
    Перевод: Не требуется
    Продолжительность: 00:39:49

    Возможны вставки текстовой рекламы.

    Размер файла: 551.88 MB
  • Поиск торрент раздач, пожалуйста подождите!

  • Скачать Чудо техники (2012-2015) SATRip Выпуск: 1-110 торрент на

    - Чудо техники (2012-2015) SATRip [Выпуск: 1-110] -

    Скачать торрент чудо техники

    Телекомпания: НТВ
    Жанр: Телепередача
    Ведущий: Сергей Малозёмов
    Описание:
    «Чудо техники» — это доходчивый и интересный рассказ о новейших научных разработках, которые способны поменять или уже меняют нашу повседневную жизнь. Автор проекта — Сергей Малозёмов — хорошо знаком зрителям НТВ по репортажам программы «Сегодня», касающимся новых технологий, гаджетов, медицины. Он в курсе последних научных разработок и одним из первых узнает о значимых изобретениях. Теперь обо всем, что происходит на передовой научно-технического прогресса, узнают и зрители НТВ. Новинки и открытия со всего мира создатели проекта подвергнут самому тщательному анализу: что-то протестируют на себе или специально приглашенных героях, узнают мнения экспертов, постараются проникнуть в саму суть вещей при помощи компьютерной графики и экспериментов в лаборатории. Когда можно будет попробовать мясо из пробирки и каково оно будет на вкус? Можно ли доверить уборку дома роботу и правда ли инфракрасный обогреватель лучше греет? Скоро ли нам будут доступны безболезненные уколы? Ответы на эти и многие другие вопросы – в каждом выпуске проекта «Чудо техники».
    Качество видео: SATRip
    Видео: Xvid/DivX, 720*400, 720*416, 720*448,

    1650kbps
    Аудио: MP3, 2 ch, 128kbps
    Скачать торрент чудо техники

    Mediainfo рандомно 8 выпусков: №001, №005, №014, №032, №055, №076, №090, №106

    Полное имя : G:\Чудо_техники\2012.Выпуски.001-005\Чудо_техники.Выпуск.001.(2012.12.02).avi
    Формат : AVI
    Формат/Информация : Audio Video Interleave
    Размер файла : 322 Мбайт
    Продолжительность : 25 м.
    Общий поток : 1735 Кбит/сек
    Библиотека кодирования : VirtualDub build 35491/release
    Видео
    Идентификатор : 0
    Формат : MPEG-4 Visual
    Профиль формата : Advanced [email protected]
    Параметр BVOP формата : 2
    Параметр QPel формата : Нет
    Параметр GMC формата : Без точки перехода
    Параметр матрицы формата : Default (H.263)
    Режим смешивания : Сжатый битовый поток
    Идентификатор кодека : XVID
    Идентификатор кодека/Подсказка : XviD
    Продолжительность : 25 м.
    Битрейт : 1597 Кбит/сек
    Ширина : 720 пикселей
    Высота : 448 пикселей
    Соотношение сторон : 16:10
    Частота кадров : 25,000 кадров/сек
    Цветовое пространство : YUV
    Субдискретизация насыщенности : 4:2:0
    Битовая глубина : 8 бит
    Тип развёртки : Прогрессивная
    Метод сжатия : С потерями
    Бит/(Пиксели*Кадры) : 0.198
    Размер потока : 296 Мбайт (92%)
    Библиотека кодирования : XviD 73
    Аудио
    Идентификатор : 1
    Формат : MPEG Audio
    Версия формата : Version 1
    Профиль формата : Layer 3
    Режим : Joint stereo
    Расширение режима : MS Stereo
    Идентификатор кодека : 55
    Идентификатор кодека/Подсказка : MP3
    Продолжительность : 25 м.
    Вид битрейта : Постоянный
    Битрейт : 128 Кбит/сек
    Каналы : 2 канала
    Частота : 48,0 КГц
    Метод сжатия : С потерями
    Размер потока : 23,7 Мбайт (7%)
    Выравнивание : Разделение по промежуткам
    Продолжительность промежутка : 40 мс. (1,00 видеокадр)
    Время предзагрузки промежутка : 500 мс.
    Общее
    Полное имя : G:\Чудо_техники\2012.Выпуски.001-005\Чудо_техники.Выпуск.005.(2012.12.31).avi
    Формат : AVI
    Формат/Информация : Audio Video Interleave
    Размер файла : 323 Мбайт
    Продолжительность : 26 м.
    Общий поток : 1735 Кбит/сек
    Библиотека кодирования : VirtualDub build 27700/release
    Видео
    Идентификатор : 0
    Формат : MPEG-4 Visual
    Профиль формата : Advanced [email protected]
    Параметр BVOP формата : 2
    Параметр QPel формата : Нет
    Параметр GMC формата : Без точки перехода
    Параметр матрицы формата : Default (H.263)
    Режим смешивания : Сжатый битовый поток
    Идентификатор кодека : XVID
    Идентификатор кодека/Подсказка : XviD
    Продолжительность : 26 м.
    Битрейт : 1597 Кбит/сек
    Ширина : 720 пикселей
    Высота : 448 пикселей
    Соотношение сторон : 16:10
    Частота кадров : 25,000 кадров/сек
    Цветовое пространство : YUV
    Субдискретизация насыщенности : 4:2:0
    Битовая глубина : 8 бит
    Тип развёртки : Прогрессивная
    Метод сжатия : С потерями
    Бит/(Пиксели*Кадры) : 0.198
    Размер потока : 297 Мбайт (92%)
    Библиотека кодирования : XviD 73
    Аудио
    Идентификатор : 1
    Формат : MPEG Audio
    Версия формата : Version 1
    Профиль формата : Layer 3
    Режим : Joint stereo
    Расширение режима : MS Stereo
    Идентификатор кодека : 55
    Идентификатор кодека/Подсказка : MP3
    Продолжительность : 26 м.
    Вид битрейта : Постоянный
    Битрейт : 128 Кбит/сек
    Каналы : 2 канала
    Частота : 48,0 КГц
    Метод сжатия : С потерями
    Размер потока : 23,8 Мбайт (7%)
    Выравнивание : Разделение по промежуткам
    Продолжительность промежутка : 40 мс. (1,00 видеокадр)
    Время предзагрузки промежутка : 500 мс.
    Общее
    Полное имя : G:\Чудо_техники\2013.Выпуски.006-046\Чудо_техники.Выпуск.014.(2013.03.17).avi
    Формат : AVI
    Формат/Информация : Audio Video Interleave
    Размер файла : 309 Мбайт
    Продолжительность : 26 м.
    Общий поток : 1638 Кбит/сек
    Программа кодирования : VirtualDubMod 1.5.10.2 (build 2542/release)
    Библиотека кодирования : VirtualDubMod build 2542/release
    Видео
    Идентификатор : 0
    Формат : MPEG-4 Visual
    Профиль формата : Advanced [email protected]
    Параметр BVOP формата : 2
    Параметр QPel формата : Нет
    Параметр GMC формата : Без точки перехода
    Параметр матрицы формата : Default (MPEG)
    Идентификатор кодека : XVID
    Идентификатор кодека/Подсказка : XviD
    Продолжительность : 26 м.
    Битрейт : 1500 Кбит/сек
    Ширина : 720 пикселей
    Высота : 400 пикселей
    Соотношение сторон : 16:9
    Частота кадров : 25,000 кадров/сек
    Цветовое пространство : YUV
    Субдискретизация насыщенности : 4:2:0
    Битовая глубина : 8 бит
    Тип развёртки : Чересстрочная
    Порядок развёртки : Нижнее поле первое
    Метод сжатия : С потерями
    Бит/(Пиксели*Кадры) : 0.208
    Размер потока : 283 Мбайт (92%)
    Библиотека кодирования : XviD 1.2.1 (UTC 2008-12-04)
    Аудио
    Идентификатор : 1
    Формат : MPEG Audio
    Версия формата : Version 1
    Профиль формата : Layer 3
    Режим : Joint stereo
    Расширение режима : MS Stereo
    Идентификатор кодека : 55
    Идентификатор кодека/Подсказка : MP3
    Продолжительность : 26 м.
    Вид битрейта : Постоянный
    Битрейт : 128 Кбит/сек
    Каналы : 2 канала
    Частота : 48,0 КГц
    Метод сжатия : С потерями
    Размер потока : 24,1 Мбайт (8%)
    Выравнивание : Разделение по промежуткам
    Продолжительность промежутка : 40 мс. (1,00 видеокадр)
    Время предзагрузки промежутка : 500 мс.
    Общее
    Полное имя : G:\Чудо_техники\2013.Выпуски.006-046\Чудо_техники.Выпуск.032.(2013.09.22).avi
    Формат : AVI
    Формат/Информация : Audio Video Interleave
    Размер файла : 306 Мбайт
    Продолжительность : 26 м.
    Общий поток : 1639 Кбит/сек
    Библиотека кодирования : VirtualDub build 32842/release
    Видео
    Идентификатор : 0
    Формат : MPEG-4 Visual
    Параметр BVOP формата : 1
    Параметр QPel формата : Нет
    Параметр GMC формата : Без точки перехода
    Параметр матрицы формата : Default (H.263)
    Режим смешивания : Сжатый битовый поток
    Идентификатор кодека : DX50
    Идентификатор кодека/Подсказка : DivX 5
    Продолжительность : 26 м.
    Битрейт : 1501 Кбит/сек
    Ширина : 720 пикселей
    Высота : 448 пикселей
    Соотношение сторон : 16:10
    Частота кадров : 25,000 кадров/сек
    Цветовое пространство : YUV
    Субдискретизация насыщенности : 4:2:0
    Битовая глубина : 8 бит
    Тип развёртки : Прогрессивная
    Метод сжатия : С потерями
    Бит/(Пиксели*Кадры) : 0.186
    Размер потока : 280 Мбайт (92%)
    Библиотека кодирования : DivX 6.8.5 (UTC 2009-08-20)
    Аудио
    Идентификатор : 1
    Формат : MPEG Audio
    Версия формата : Version 1
    Профиль формата : Layer 3
    Режим : Joint stereo
    Идентификатор кодека : 55
    Идентификатор кодека/Подсказка : MP3
    Продолжительность : 26 м.
    Вид битрейта : Постоянный
    Битрейт : 128 Кбит/сек
    Каналы : 2 канала
    Частота : 48,0 КГц
    Метод сжатия : С потерями
    Размер потока : 23,9 Мбайт (8%)
    Выравнивание : Разделение по промежуткам
    Продолжительность промежутка : 40 мс. (1,00 видеокадр)
    Время предзагрузки промежутка : 500 мс.
    Общее
    Полное имя : G:\Чудо_техники\2014.Выпуски.047-087\Чудо_техники.Выпуск.055.(2014.03.16).avi
    Формат : AVI
    Формат/Информация : Audio Video Interleave
    Размер файла : 304 Мбайт
    Продолжительность : 25 м.
    Общий поток : 1638 Кбит/сек
    Программа кодирования : VirtualDubMod 1.5.10.3 | [url=http://www.virtualdub-fr.org]www.virtualdub-fr.org[/url] || (build 2550/release)
    Библиотека кодирования : VirtualDubMod build 2550/release
    Видео
    Идентификатор : 0
    Формат : MPEG-4 Visual
    Профиль формата : Advanced [email protected]
    Параметр BVOP формата : 2
    Параметр QPel формата : Нет
    Параметр GMC формата : Без точки перехода
    Параметр матрицы формата : Default (H.263)
    Идентификатор кодека : XVID
    Идентификатор кодека/Подсказка : XviD
    Продолжительность : 25 м.
    Битрейт : 1500 Кбит/сек
    Ширина : 720 пикселей
    Высота : 448 пикселей
    Соотношение сторон : 16:10
    Частота кадров : 25,000 кадров/сек
    Цветовое пространство : YUV
    Субдискретизация насыщенности : 4:2:0
    Битовая глубина : 8 бит
    Тип развёртки : Прогрессивная
    Метод сжатия : С потерями
    Бит/(Пиксели*Кадры) : 0.186
    Размер потока : 278 Мбайт (92%)
    Библиотека кодирования : XviD 1.2.1 (UTC 2008-12-04)
    Аудио
    Идентификатор : 1
    Формат : MPEG Audio
    Версия формата : Version 1
    Профиль формата : Layer 3
    Режим : Joint stereo
    Идентификатор кодека : 55
    Идентификатор кодека/Подсказка : MP3
    Продолжительность : 25 м.
    Вид битрейта : Постоянный
    Битрейт : 128 Кбит/сек
    Каналы : 2 канала
    Частота : 48,0 КГц
    Метод сжатия : С потерями
    Размер потока : 23,8 Мбайт (8%)
    Выравнивание : Соединение по промежуткам
    Продолжительность промежутка : 40 мс. (1,00 видеокадр)
    Время предзагрузки промежутка : 504 мс.
    Библиотека кодирования : LAME3.99r
    Настройки программы : -m j -V 4 -q 2 -lowpass 17 -b 128
    Общее
    Полное имя : G:\Чудо_техники\2014.Выпуски.047-087\Чудо_техники.Выпуск.076.(2014.10.12).avi
    Формат : AVI
    Формат/Информация : Audio Video Interleave
    Размер файла : 513 Мбайт
    Продолжительность : 37 м.
    Общий поток : 1938 Кбит/сек
    Библиотека кодирования : VirtualDub build 32817/release
    Видео
    Идентификатор : 0
    Формат : MPEG-4 Visual
    Профиль формата : Advanced [email protected]
    Параметр BVOP формата : 2
    Параметр QPel формата : Нет
    Параметр GMC формата : Без точки перехода
    Параметр матрицы формата : Default (MPEG)
    Идентификатор кодека : XVID
    Идентификатор кодека/Подсказка : XviD
    Продолжительность : 37 м.
    Битрейт : 1800 Кбит/сек
    Ширина : 720 пикселей
    Высота : 448 пикселей
    Соотношение сторон : 16:10
    Частота кадров : 25,000 кадров/сек
    Цветовое пространство : YUV
    Субдискретизация насыщенности : 4:2:0
    Битовая глубина : 8 бит
    Тип развёртки : Прогрессивная
    Метод сжатия : С потерями
    Бит/(Пиксели*Кадры) : 0.223
    Размер потока : 477 Мбайт (93%)
    Библиотека кодирования : XviD 1.2.1 (UTC 2008-12-04)
    Аудио
    Идентификатор : 1
    Формат : MPEG Audio
    Версия формата : Version 1
    Профиль формата : Layer 3
    Режим : Joint stereo
    Расширение режима : MS Stereo
    Идентификатор кодека : 55
    Идентификатор кодека/Подсказка : MP3
    Продолжительность : 37 м.
    Вид битрейта : Постоянный
    Битрейт : 128 Кбит/сек
    Каналы : 2 канала
    Частота : 48,0 КГц
    Метод сжатия : С потерями
    Размер потока : 33,9 Мбайт (7%)
    Выравнивание : Разделение по промежуткам
    Продолжительность промежутка : 40 мс. (1,00 видеокадр)
    Время предзагрузки промежутка : 500 мс.
    Общее
    Полное имя : G:\Чудо_техники\2015.Выпуски.088-\Чудо_техники.Выпуск.090.(2015.02.01).avi
    Формат : AVI
    Формат/Информация : Audio Video Interleave
    Размер файла : 497 Мбайт
    Продолжительность : 35 м.
    Общий поток : 1937 Кбит/сек
    Программа кодирования : VirtualDubMod 1.5.10.3 | [url=http://www.virtualdub-fr.org]www.virtualdub-fr.org[/url] || (build 2550/release)
    Библиотека кодирования : VirtualDubMod build 2550/release
    Видео
    Идентификатор : 0
    Формат : MPEG-4 Visual
    Профиль формата : Advanced [email protected]
    Параметр BVOP формата : 2
    Параметр QPel формата : Нет
    Параметр GMC формата : Без точки перехода
    Параметр матрицы формата : Default (H.263)
    Идентификатор кодека : XVID
    Идентификатор кодека/Подсказка : XviD
    Продолжительность : 35 м.
    Битрейт : 1800 Кбит/сек
    Ширина : 720 пикселей
    Высота : 448 пикселей
    Соотношение сторон : 16:10
    Частота кадров : 25,000 кадров/сек
    Цветовое пространство : YUV
    Субдискретизация насыщенности : 4:2:0
    Битовая глубина : 8 бит
    Тип развёртки : Прогрессивная
    Метод сжатия : С потерями
    Бит/(Пиксели*Кадры) : 0.223
    Размер потока : 462 Мбайт (93%)
    Библиотека кодирования : XviD 1.2.1 (UTC 2008-12-04)
    Аудио
    Идентификатор : 1
    Формат : MPEG Audio
    Версия формата : Version 1
    Профиль формата : Layer 3
    Идентификатор кодека : 55
    Идентификатор кодека/Подсказка : MP3
    Продолжительность : 35 м.
    Вид битрейта : Постоянный
    Битрейт : 128 Кбит/сек
    Каналы : 2 канала
    Частота : 48,0 КГц
    Метод сжатия : С потерями
    Размер потока : 32,8 Мбайт (7%)
    Выравнивание : Соединение по промежуткам
    Продолжительность промежутка : 40 мс. (1,00 видеокадр)
    Время предзагрузки промежутка : 504 мс.
    Библиотека кодирования : LAME3.99r
    Настройки программы : -m s -V 4 -q 2 -lowpass 17 -b 128
    Общее
    Полное имя : G:\Чудо_техники\2015.Выпуски.088-\Чудо_техники.Выпуск.106.(2015.05.31).avi
    Формат : AVI
    Формат/Информация : Audio Video Interleave
    Размер файла : 476 Мбайт
    Продолжительность : 34 м.
    Общий поток : 1938 Кбит/сек
    Программа кодирования : VirtualDubMod 1.5.10.3 | [url=http://www.virtualdub-fr.org]www.virtualdub-fr.org[/url] || (build 2550/release)
    Библиотека кодирования : VirtualDubMod build 2550/release
    Видео
    Идентификатор : 0
    Формат : MPEG-4 Visual
    Профиль формата : Advanced [email protected]
    Параметр BVOP формата : 2
    Параметр QPel формата : Нет
    Параметр GMC формата : Без точки перехода
    Параметр матрицы формата : Default (H.263)
    Идентификатор кодека : XVID
    Идентификатор кодека/Подсказка : XviD
    Продолжительность : 34 м.
    Битрейт : 1800 Кбит/сек
    Ширина : 720 пикселей
    Высота : 448 пикселей
    Соотношение сторон : 16:10
    Частота кадров : 25,000 кадров/сек
    Цветовое пространство : YUV
    Субдискретизация насыщенности : 4:2:0
    Битовая глубина : 8 бит
    Тип развёртки : Прогрессивная
    Метод сжатия : С потерями
    Бит/(Пиксели*Кадры) : 0.223
    Размер потока : 442 Мбайт (93%)
    Библиотека кодирования : XviD 1.2.1 (UTC 2008-12-04)
    Аудио
    Идентификатор : 1
    Формат : MPEG Audio
    Версия формата : Version 1
    Профиль формата : Layer 3
    Идентификатор кодека : 55
    Идентификатор кодека/Подсказка : MP3
    Продолжительность : 34 м.
    Вид битрейта : Постоянный
    Битрейт : 128 Кбит/сек
    Каналы : 2 канала
    Частота : 48,0 КГц
    Метод сжатия : С потерями
    Размер потока : 31,5 Мбайт (7%)
    Выравнивание : Соединение по промежуткам
    Продолжительность промежутка : 40 мс. (1,00 видеокадр)
    Время предзагрузки промежутка : 504 мс.
    Библиотека кодирования : LAME3.99r
    Настройки программы : -m s -V 4 -q 2 -lowpass 17 -b 128

    почему на офф сайте НТВ 130 выпусков

    Скриншоты:
    Скачать торрент чудо техникиСкачать торрент чудо техникиСкачать торрент чудо техникиСкачать торрент чудо техники Время раздачи: 24/7 Все релизы Чудо Техники на Torbina.com