Софт-Портал

Blues Cousins скачать торрент

Рейтинг: 5.0/5.0 (1175 проголосовавших)

Категория: Торрент-файлы

Описание

Скачать Blues Cousins - Live in Moscow (2003) DVDRip торрент на

- Blues Cousins - Live in Moscow (2003) DVDRip -

Blues cousins скачать торрент

Год выпуска: 2003
Жанр: Blues
Описание фильма: - За 13 лет существования, группа Blues Cousins успела завоевать, не только признание Московской аудитории, но и отличилась на международной арене, будучи названной лучшей группой года на фестивале Blues Sur Seine 2000 (Франция). Blues Cousins является частым участником фестивалей и туров по Финляндии, Македонии, Чехии, Франции, США. Летом 2004 года Blues Cousins совершили трехмесячный тур по США. В рамках которого выступили в качестве хедлайнера на фестивалях: Mountbaker Blues Fest, Rockcut Blues Fest, Kettle River Blues Fest, Pig Out Blues Fest
Лидер группы - Леван Ломидзе официально признан одним из 10-ти лучших гитаристов России. Дискография Blues Cousins состоит из шести сольных альбомов, последний из которых "Live in USA" записан в США, и более 10-ти сборников. По оценке "The Moscow Times" Blues Cousins - самая востребованная группа в Московских клубах - группа дает от 17 до 25 концертов в месяц. - Треклист:
01. Intro
02. Long Time Ago
03. My Baby Is Coming Home
04. No More Dogging
05. 3 O'Clock Blues
06. Sweet Home Chicago
07. She Is My Woman
08. Johny B. Good
09. Hoochie Coochie Man
10. Rush Hour
11. Moscow Boogie
Состав: Леван Ломидзе & Blues Cousins
Продолжительность: 01:04:51
Качество видео: DVDRip
Видеокодек: Xvid
Битрейт видео:

1271 Кбит/с
Размер кадра: 512x384
Аудиокодек: MP3, 2ch
Аудио: 128 Кбит/сек (ABR)

MediaInfo:

General
Complete name : Blues Cousins - Live in Moscow (2003).avi
Format : AVI
Format/Info : Audio Video Interleave
File size : 646 MiB
Duration : 1h 4mn
Overall bit rate mode : Variable
Overall bit rate : 1 393 Kbps
Video
ID : 0
Format : MPEG-4 Visual
Format profile : Advanced [email protected]
Format settings, BVOP : 1
Format settings, QPel : No
Format settings, GMC : No warppoints
Format settings, Matrix : Custom
Codec ID : XVID
Codec ID/Hint : XviD
Duration : 1h 4mn
Bit rate : 1 271 Kbps
Width : 512 pixels
Height : 384 pixels
Display aspect ratio : 4:3
Frame rate : 25.000 fps
Color space : YUV
Chroma subsampling : 4:2:0
Bit depth : 8 bits
Scan type : Progressive
Compression mode : Lossy
Bits/(Pixel*Frame) : 0.258
Stream size : 589 MiB (91%)
Writing library : XviD 1.2.0.dev47 (UTC 2006-11-01)
Audio
ID : 1
Format : MPEG Audio
Format version : Version 1
Format profile : Layer 3
Mode : Joint stereo
Mode extension : MS Stereo
Codec ID : 55
Codec ID/Hint : MP3
Duration : 38mn 55s
Source duration : 55mn 15s
Bit rate mode : Variable
Bit rate : 109 Kbps
Nominal bit rate : 128 Kbps
Channel(s) : 2 channels
Sampling rate : 48.0 KHz
Compression mode : Lossy
Stream size : 50.6 MiB (8%)
Alignment : Aligned on interleaves
Interleave, duration : 24 ms (0.60 video frame)
Writing library : LAME3.97
Encoding settings : -m j -V 4 -q 2 -lowpass 17 --abr 128

Скриншоты: Blues cousins скачать торрентBlues cousins скачать торрентBlues cousins скачать торрентBlues cousins скачать торрентBlues cousins скачать торрентBlues cousins скачать торрент Время раздачи: с 6:00 до 22:00 (GMT +2)

Blues Cousins Торрент:

  • скачать
  • скачать
  • Другие статьи

    Levan Lomidze - The Blues Cousins - The Best, MP3 Музыка 2007 скачать торрентом

    • Дата выхода: 14 сентября 2017" alt="мама! дата выхода 14 сентября 2017" />
    • Дата выхода: 14 сентября 2017" alt="Напарник дата выхода 14 сентября 2017" />
    • Дата выхода: 14 сентября 2017" alt="Клаустрофобия дата выхода 14 сентября 2017" />
    • Дата выхода: 14 сентября 2017" alt="Статус Брэда дата выхода 14 сентября 2017" />
    • Дата выхода: 14 сентября 2017" alt="Мадам дата выхода 14 сентября 2017" />
    • Дата выхода: 14 сентября 2017" alt="Министр дата выхода 14 сентября 2017" />
    • Дата выхода: 16 сентября 2017" alt="МУЛЬТ в кино. Выпуск №58. Большая перемена дата выхода 16 сентября 2017" />
    • Дата выхода: 21 сентября 2017" alt="Kingsman: Золотое кольцо дата выхода 21 сентября 2017" />
    • Дата выхода: 21 сентября 2017" alt="ЛЕГО Ниндзяго Фильм дата выхода 21 сентября 2017" />
    • Дата выхода: 21 сентября 2017" alt="Техасская резня бензопилой: Кожаное лицо дата выхода 21 сентября 2017" />
    • Дата выхода: 21 сентября 2017" alt="Хранилище дата выхода 21 сентября 2017" />
    • Дата выхода: 21 сентября 2017" alt="Заложники дата выхода 21 сентября 2017" />
    • Дата выхода: 21 сентября 2017" alt="Роден дата выхода 21 сентября 2017" />
    • Дата выхода: 21 сентября 2017" alt="Русские евреи. Фильм третий. После 1948 года дата выхода 21 сентября 2017" />
    • Дата выхода: 28 сентября 2017" alt="Наемник дата выхода 28 сентября 2017" />

    Levan Lomidze & The Blues Cousins - The Best | MP3

    Levan Lomidze & The Blues Cousins - The Best | MP3 [Музыка 2007] скачать торрентом/torrent бесплатно

    Blues cousins скачать торрент

    28-06-2017 в 19:34:41

    Не воспроизводятся видео/аудио?

    Раздают: 8 Качают: 4 Скачали: 9 Размер: 153.67 MB

    Название: The Best
    Исполнитель: Levan Lomidze & The Blues Cousins
    Год: 2007
    Жанр: Blues, Blues Rock
    Страна: Россия

    Продолжительность: 01:06:41
    Формат/Кодек: MP3
    Битрейт аудио: 320kbps


    1. Girl from Russia
    2. Hoochie Coochie Man
    3. Sleeples Night
    4. Eyes like cat
    5. All your loving
    6. Hey Hey
    7. Five Long Years
    8. Nobody Knows
    9. Personal manager
    10. Moscow Boogie
    11. Talk to me Talk to me
    12. Suicide Blues

    Леван Ломидзе является первым российским гитаристом, признанным на родине Блюза.

    2002 году был подписан долгосрочный контракт с Вашингтонским Блюзовым сообществом, о проведении 5 туров по США. включая выступления на самых престижных блюз фестивалях Америки. В общей сложности было проведено более 100 концертов.

    На фестивале « Blues Sur Sein 2000» (Франция) Леван был награжден призом симпатии зрителей, а Blues Cousins названа лучшей среди 57 групп..

    По результатам опроса слушателей передачи «Доктор Блюз» (Открытое Радио) – Леван Ломидзе был признан лучшим российским блюзовым музыкантом года.

    2005 году американская компания Jazz Stream Records выпустила «живой» альбом Левана – Live in USA

    Blues Cousins - 3 альбома (2004-2011) MP3, 320 кб

    Blues Cousins - 3 альбома (2004-2011)

    Год: 2004-2011
    Жанр: Blues, Blues-Rock, Hard Blues
    Продолжительность: 02:56:55

    Кодек: MP3
    Битрейт: 320 кб/с
    Тип битрейта: CBR


    Леван Ломидзе является первым российским гитаристом, признанным на родине Блюза. На фестивале «Blues Sur Sein 2000» (Франция) Леван был награжден призом симпатии зрителей, а Blues Cousins названа лучшей среди 57 групп. По результатам опроса слушателей передачи «Доктор Блюз» (Открытое Радио) – Леван Ломидзе был признан лучшим российским блюзовым музыкантом года.По оценке журналов Audio - Video. Music Box. Guitars.ru, Леван признан одним из 10-ти лучших гитаристов России. Леван награжден мэром Москвы за акцию «Рок против наркотиков» Описание:
    Леван Ломидзе является первым российским гитаристом, признанным на родине Блюза. На фестивале «Blues Sur Sein 2000» (Франция)
    Леван был награжден призом симпатии зрителей, а Blues Cousins названа лучшей среди 57 групп. Леван Ломидзе является первым
    российским гитаристом, признанным на родине Блюза.

    Список альбомов:
    2004 - Live at Sunbanks blues festival
    2007 - The Best
    2011 - KGB Blues

    Прoдолжительность: 01:05:29

    Прoдолжительность:
    01. Messing with the kid
    02. No more dogging
    03. Talk to me
    04. Sweet home Chicago
    05. Help me
    06. Johnny b. Goode
    07. My baby is coming home
    08. Moscow boogie
    09. Long time ago

    Прoдолжительность: 01:06:41

    Прoдолжительность:
    01. Girl from Russia
    02. Hoochie Man
    03. Sleeples Night
    04. Eyes like cat
    05. All your loving
    06. Hey Hey
    07. Five Long
    08. Nobody Knows
    09. The personal manager
    10. Moscow Boogie
    11. Talk to me
    12. Suicide Blues

    Прoдолжительность: 00:44:44

    Прoдолжительность:
    01. KGB Blues [00:03:55]
    02. The Brother [00:06:36]
    03. I'm Mad [00:03:40]
    04. Love Matters [00:04:24]
    05. What Would You Say [00:02:57]
    06. Rock'n'Roll (version 1) [00:06:16]
    07. You Don't Know [00:04:15]
    08. The Blues That Rocks [00:03:04]
    09. The Chocolate [00:06:25]
    10. Rock'n'Roll (version 2) [00:03:07]

    The Blues Cousins (Блюз Казнс) - Дождь (1999) MP3 от Vanila, Скачать Торрент

    The Blues Cousins (Блюз Казнс) - Дождь (1999) MP3 от Vanila | Скачать Торрент

    У нас вы можете не только скачать фильмы через торрент или скачать сериалы через торрент, но также скачать торренты музыки, торренты игр, торренты программ и даже торрент файлы книг. Быстрый поиск среди огромного числа торрент файлов позволит в считанные секунда найти интересующие вас торрент файлы фильмов, торрент файлы музыки, торренты программ, книг и игр для компьютеров. Огромная коллекция новых фильмов и последних серий популярных сериалов. На сайте находятся фильмы 1080p, фильмы 720p, 3d фильмы. Все фильмы с качественными и профессиональными переводами.

    По всем вопросам и предложениям пишите на support@cloudyapi.com. ZzTorrent.com - 2017

    Файлы для обмена собираются в автоматическом режиме, по всей сети интернет. Администрация не несёт ответственности за их содержание. На сервере хранятся только торрент-файлы.

    Это значит, что мы не храним никаких нелегальных материалов, а так же материалов охраняемых авторским правом.

    Blues-rock) Blues Cousins - KGB Blues - 2011, FLAC (image

    Blues Cousins / KGB Blues
    Жанр. Blues-rock
    Страна-производитель диска. Россия
    Год издания диска. 2011
    Страна. Россия
    Аудиокодек. FLAC (*.flac)
    Тип рипа. image+.cue
    Битрейт аудио. lossless
    Продолжительность. 44:43
    Источник (релизер). собственный рип
    Наличие сканов в содержимом раздачи. да
    Треклист :
    1. KGB Blues (03:55)
    2. The Brother (06:36)
    3. I'm Mad (03:40)
    4. Love Matters (04:24)
    5. What Would You Say (02:57)
    6. Rock'n'Roll (version 1) (06:16)
    7. You Don't Know (04:15)
    8. The Blues That Rocks (03:04)
    9. The Chocolate (06:25)
    10.Rock'n'Roll (version 2) (03:07)

    Лог создания рипа

    Exact Audio Copy V0.99 prebeta 5 from 4. May 2009
    Отчёт EAC об извлечении, выполненном 1. октября 2011, 14:14
    Blues Cousins / KGB Blues
    Дисковод: TSSTcorpCDDVDW SH-S222A Adapter: 4 ID: 0
    Режим чтения. ДостоверностьИспользование точного потока. ДаОтключение кэша аудио. ДаИспользование указателей C2. Нет
    Коррекция смещения при чтении. 6Способность читать области Lead-in и Lead-out. НетЗаполнение пропущенных сэмплов тишиной. ДаУдаление блоков с тишиной в начале и конце. НетПри вычислениях CRC использовались нулевые сэмплы. ДаИнтерфейс. Встроенный Win32-интерфейс для Win NT/2000
    Выходной формат. Внутренние WAV-операцииФормат сэмплов. 44.100 Гц; 16 бит; стерео
    TOC извлечённого CD
    Трек | Старт | Длительность | Начальный сектор | Конечный сектор --------------------------------------------------------------------- 1 | 0:00.00 | 3:55.28 | 0 | 17652 2 | 3:55.28 | 6:36.15 | 17653 | 47367 3 | 10:31.43 | 3:40.72 | 47368 | 63939 4 | 14:12.40 | 4:24.55 | 63940 | 83794 5 | 18:37.20 | 2:57.29 | 83795 | 97098 6 | 21:34.49 | 6:16.47 | 97099 | 125345 7 | 27:51.21 | 4:15.16 | 125346 | 144486 8 | 32:06.37 | 3:04.38 | 144487 | 158324 9 | 35:11.00 | 6:25.23 | 158325 | 187222 10 | 41:36.23 | 3:07.02 | 187223 | 201249
    Характеристики диапазона извлечения и сообщения об ошибках
    Выбранный диапазон
    Имя файла D:\Мои раздачи-0\Blues Cousins - 2011 - KGB Blues\Blues Cousins - KGB Blues.wav
    Пиковый уровень 100.0 % Качество диапазона 100.0 % CRC теста BFE4DB94 CRC копии BFE4DB94 Копирование. OK
    Ошибок не произошло
    AccurateRip: сводка
    Трек 1 нет в базе данныхТрек 2 нет в базе данныхТрек 3 нет в базе данныхТрек 4 нет в базе данныхТрек 5 нет в базе данныхТрек 6 нет в базе данныхТрек 7 нет в базе данныхТрек 8 нет в базе данныхТрек 9 нет в базе данныхТрек 10 нет в базе данных
    Ни одного трека нет в базе AccurateRip
    Конец отчёта

    Скриншот спектра частот